National Geographic : Берег скелетов / National Geographic : Survivors of the Skeleton Coast [1993, Научно-популярный, DVDRip]

Страницы:  1

Ответить
Автор
Сообщение

TORMOZ2

Top Loader 02* 300GB

Стаж: 11 лет 5 месяцев

Сообщений: 375

TORMOZ2 · 31-Июл-14 14:00 (4 года 10 месяцев назад)

National Geographic : Берег скелетов / National Geographic : Survivors of the Skeleton Coast
Дата/Год выпуска: 1993
Страна: США
Жанр: Научно-популярный
Продолжительность: 00:53:04
Перевод: Студийный (одноголосый закадровый) (Ю.Сербин)
Русские субтитры: нет
Описание: Рассказ о животных западного побережья Намибии
Сэмпл: http:// СПАМ
качество: DVDRip
формат: AVI
Видео: Video: 640x480 (1.33:1), 25 fps, XviD build 50 ~1999 kbps avg, 0.26 bit/pixe
Аудио: Audio: 44.100 kHz, MPEG Layer 3, 2 ch, ~128.00 kbps avg
MediaInfo
General
Complete name : H:\NG Берег склетов.avi
Format : AVI
Format/Info : Audio Video Interleave
File size : 812 MiB
Duration : 53mn 4s
Overall bit rate : 2 140 Kbps
Writing application : Lavf52.57.1
Video
ID : 0
Format : xvid
Codec ID : xvid
Duration : 53mn 4s
Bit rate : 1 999 Kbps
Width : 640 pixels
Height : 480 pixels
Display aspect ratio : 4:3
Frame rate : 25.000 fps
Bits/(Pixel*Frame) : 0.260
Stream size : 759 MiB (93%)
Audio
ID : 1
Format : MPEG Audio
Format version : Version 1
Format profile : Layer 3
Mode : Joint stereo
Mode extension : MS Stereo
Codec ID : 55
Codec ID/Hint : MP3
Duration : 53mn 3s
Bit rate mode : Constant
Bit rate : 128 Kbps
Channel(s) : 2 channels
Sampling rate : 44.1 KHz
Compression mode : Lossy
Stream size : 48.6 MiB (6%)
Alignment : Aligned on interleaves
Interleave, duration : 26 ms (0.65 video frame)
Скриншоты
Download
Для скачивания .torrent файлов необходима регистрация
Сайт не распространяет и не хранит электронные версии произведений, а лишь предоставляет доступ к создаваемому пользователями каталогу ссылок на торрент-файлы, которые содержат только списки хеш-сумм
[Профиль]  [ЛС] 

Zhyvana

Moderator gray

Стаж: 8 лет 7 месяцев

Сообщений: 2468

Zhyvana · 31-Июл-14 20:50 (спустя 6 часов)

TORMOZ2
Цитата:
- не обрезана чёрная рамка (letterbox)
# Сомнительно

[Профиль]  [ЛС] 
 
Ответить
Loading...
Error