Мир коралловых рифов [2013, Документальный, HDTV 720p]

Страницы:  1

Ответить
Автор
Сообщение

Kulibiner

RG Olympic

Стаж: 9 лет 6 месяцев

Сообщений: 1243

Kulibiner · 31-Авг-14 13:35 (4 года 9 месяцев назад, ред. 31-Авг-14 13:53)

Мир коралловых рифов
Год выпуска: 2013
Страна: США
Жанр: Документальный
Продолжительность: 00:48:14
Перевод: Русский профессиональный (одноголосый закадровый)
Описание: Коралловые рифы насчитывают самое большое количество видов среди всех представителей флоры и фауны. Рифы, находящиеся в теплых водах Тихого океана и Карибского бассейна хорошо всем известны, но известно ли вам, что рифы также произрастают и в холодной воде. Образованные айсбергами глубоководные рифы становятся идеальным основанием для образования там кораллов. Скрытые от человеческих глаз коралловые рифы можно найти как в тропических морях, а также в леденящих арктических океанах. Некоторые из них еще никогда не были изучены человеком, но теперь мы отправимся в самую глубь океана, чтобы больше узнать о жизни, процветающей там. Кто бы мог представить, что такое разнообразие красок, животных и растений могут существовать на такой глубине и в полной темноте?
Доп. информация: запись со спутника "как есть"
Тип релиза: HDTV 720p
Контейнер: TS
Видео: AVC MPEG-4, 1280x720, 16:9, 9339 kbps, 50 fps
Аудио: MPEG 2 Audio 128 Кбит/сек 2 channels 44.0 KHz
MediaInfo
Мир коралловых рифов.ts
Формат : MPEG-TS
Размер файла : 3,36 Гбайт
Продолжительность : 48 м.
Режим общего битрейта : Переменный
Общий поток : 9961 Кбит/сек
Максимальный общий битрейт : 35,5 Мбит/сек
Видео
Идентификатор : 4113 (0x1011)
Идентификатор меню : 1 (0x1)
Формат : AVC
Формат/Информация : Advanced Video Codec
Профиль формата : [email protected]
Параметр CABAC формата : Да
Параметр ReFrames формата : 5 кадров
Идентификатор кодека : 27
Продолжительность : 48 м.
Вид битрейта : Переменный
Битрейт : 9339 Кбит/сек
Максимальный битрейт : 40,0 Мбит/сек
Ширина : 1280 пикселей
Высота : 720 пикселей
Соотношение сторон : 16:9
Частота кадров : 50,000 кадров/сек
Стандарт вещания : Component
Цветовое пространство : YUV
Субдискретизация насыщенности : 4:2:0
Битовая глубина : 8 бит
Тип развёртки : Прогрессивная
Бит/(Пиксели*Кадры) : 0.203
Размер потока : 3,15 Гбайт (94%)
Основные цвета : BT.709
Характеристики трансфера : BT.709
Коэффициенты матрицы : BT.709
Аудио
Идентификатор : 4352 (0x1100)
Идентификатор меню : 1 (0x1)
Формат : MPEG Audio
Версия формата : Version 1
Профиль формата : Layer 2
Идентификатор кодека : 4
Продолжительность : 48 м.
Вид битрейта : Постоянный
Битрейт : 128 Кбит/сек
Каналы : 2 канала
Частота : 48,0 КГц
Метод сжатия : С потерями
Размер потока : 44,2 Мбайт (1%)
Язык : Russian
Скриншоты
Download
Для скачивания .torrent файлов необходима регистрация
Сайт не распространяет и не хранит электронные версии произведений, а лишь предоставляет доступ к создаваемому пользователями каталогу ссылок на торрент-файлы, которые содержат только списки хеш-сумм
[Профиль]  [ЛС] 

Виталий080175

Стаж: 8 лет 2 месяца

Сообщений: 16


Виталий080175 · 19-Дек-14 13:17 (спустя 3 месяца 18 дней)

Не пошло. Ни на плеере, ни на компе... Жаль...
[Профиль]  [ЛС] 
 
Ответить
Loading...
Error