Тайны дикой природы Индии / Секреты дикой Индии / Secrets of Wild India (Дункан Чард / Duncan Chard) [2011, Документальный, Blu-ray Disc 1080i]

Страницы:  1

Ответить
Автор
Сообщение

Garfiеld

Top Loader 07* 8TB

Стаж: 7 лет

Сообщений: 243

Garfiеld · 30-Мар-13 19:33 (6 лет 2 месяца назад, ред. 30-Мар-13 19:56)

Секреты дикой Индии / Secrets of Wild India

Год выпуска: 2011
Страна: США
Жанр: Документальный
Продолжительность: 3 x 00:48:01
Перевод: Одноголосый закадровый
Русские субтитры: есть

Режиссер: Дункан Чард / Duncan Chard
Описание: В суровых условиях пустынь и соляных пустошей северо-запада Индии лишь самые выносливые животные могут выдерживать песчаные бури, засуху и зной.

Тип релиза: Blu-ray 1080i
Контейнер: BDMV
Video: MPEG-4 AVC Video / 20001 kbps / 1080i / 25 fps / 16:9 / High Profile 4.1
Audio: English / DTS-HD Audio / 5.1 / 48 kHz / 3018 kbps / 16-bit (DTS Core: 5.1 / 48 kHz / 1509 kbps / 16-bit)
Audio: Russian / Dolby Digital Audio / 2.0 / 48 kHz / 192 kbps
Subtitle: Russian / 1,599 kbps
Релиз от:

------------
Раздача от:
На диске
  • Episode 1: Elephant Kingdom / В царстве слонов
  • Episode 2: Tiger Jungles / Хищники джунглей
  • Episode 3: Desert Lions / Львы пустыни
Скриншоты
BDinfo
Disc Title: SECRETS_OF_WILD_INDIA_RUS
Disc Size: 26 829 017 166 bytes
Protection: AACS
BD-Java: No
BDInfo: 0.5.2
Notes:
BDINFO HOME AND REPORTS SUBMISSION:
Cinema Squid
http://www.cinemasquid.com/Tools.aspx
INCLUDES FORUMS REPORT FOR:
Unofficial Blu-ray Audio and Video Specifications Thread
http://www.avsforum.com/avs-vb/showthread.php?t=760714
http://forum.blu-ray.com/showthread.php?t=3338
********************
PLAYLIST: 00009.MPLS
********************
<--- BEGIN FORUMS PASTE --->
Код:
Total   Video
Title                                                           Codec   Length  Movie Size      Disc Size       Bitrate Bitrate Main Audio Track                          Secondary Audio Track
-----                                                           ------  ------- --------------  --------------  ------- ------- ------------------                        ---------------------
00009.MPLS                                                      AVC     2:24:02 26 642 193 600  26 829 017 166  24,66   20,00   DTS-HD Hi-Res 5.1 3018Kbps (48kHz/16-bit)
Код:
DISC INFO:
Disc Title:     SECRETS_OF_WILD_INDIA_RUS
Disc Size:      26 829 017 166 bytes
Protection:     AACS
BD-Java:        No
BDInfo:         0.5.2
PLAYLIST REPORT:
Name:                   00009.MPLS
Size:                   26 642 193 600 bytes
Length:                 2:24:02 (h:m:s)
Total Bitrate:          24,66 Mbps
Description:
VIDEO:
Codec                   Bitrate             Description
-----                   -------             -----------
MPEG-4 AVC Video        20001 kbps          1080i / 25 fps / 16:9 / High Profile 4.1
AUDIO:
Codec                           Language        Bitrate         Description
-----                           --------        -------         -----------
DTS-HD Audio                    English         3018 kbps       5.1 / 48 kHz / 3018 kbps / 16-bit (DTS Core: 5.1 / 48 kHz / 1509 kbps / 16-bit)
Dolby Digital Audio             Russian         192 kbps        2.0 / 48 kHz / 192 kbps
SUBTITLES:
Codec                           Language        Bitrate         Description
-----                           --------        -------         -----------
Presentation Graphics           Russian         1,599 kbps
FILES:
Name            Time In         Length          Size            Total Bitrate
----            -------         ------          ----            -------------
00005.M2TS      0:00:00.000     0:48:00.559     8 880 510 144   24 663
00006.M2TS      0:48:00.559     0:48:01.000     8 880 906 240   24 661
00007.M2TS      1:36:01.559     0:48:01.000     8 880 777 216   24 660
CHAPTERS:
Number          Time In         Length          Avg Video Rate  Max 1-Sec Rate  Max 1-Sec Time  Max 5-Sec Rate  Max 5-Sec Time  Max 10Sec Rate  Max 10Sec Time  Avg Frame Size  Max Frame Size  Max Frame Time
------          -------         ------          --------------  --------------  --------------  --------------  --------------  --------------  --------------  --------------  --------------  --------------
1               0:00:00.000     0:08:09.000     20 278 kbps     42 693 kbps     00:07:04.279    37 478 kbps     00:06:20.279    35 618 kbps     00:03:09.919    101 281 bytes   553 228 bytes   00:07:04.319
2               0:08:09.000     0:08:07.000     21 075 kbps     47 104 kbps     00:13:47.720    39 086 kbps     00:11:47.800    33 968 kbps     00:14:57.839    105 377 bytes   469 394 bytes   00:08:20.440
3               0:16:16.000     0:07:56.599     20 193 kbps     51 056 kbps     00:21:31.480    40 190 kbps     00:20:02.360    35 895 kbps     00:20:01.720    100 966 bytes   562 031 bytes   00:22:00.720
4               0:24:12.599     0:08:42.400     21 432 kbps     40 252 kbps     00:30:23.639    35 335 kbps     00:25:47.559    33 347 kbps     00:25:43.720    107 158 bytes   532 441 bytes   00:30:21.760
5               0:32:55.000     0:07:29.000     18 913 kbps     51 041 kbps     00:39:58.800    39 187 kbps     00:39:58.800    36 579 kbps     00:33:54.839    94 566 bytes    562 164 bytes   00:34:03.919
6               0:40:24.000     0:07:36.559     17 804 kbps     43 387 kbps     00:45:14.319    34 784 kbps     00:45:18.120    31 362 kbps     00:45:13.720    89 020 bytes    583 693 bytes   00:45:14.360
7               0:48:00.559     0:08:27.199     18 234 kbps     58 145 kbps     00:50:58.639    33 369 kbps     00:51:16.919    29 493 kbps     00:51:14.759    91 170 bytes    481 925 bytes   00:50:59.199
8               0:56:27.759     0:06:58.600     19 570 kbps     46 920 kbps     00:59:47.040    40 107 kbps     00:59:46.759    33 972 kbps     00:59:46.759    97 851 bytes    480 609 bytes   00:59:48.720
9               1:03:26.360     0:08:15.000     19 998 kbps     40 854 kbps     01:07:22.479    38 378 kbps     01:06:45.360    37 349 kbps     01:06:43.919    99 989 bytes    509 364 bytes   01:06:50.360
10              1:11:41.360     0:10:18.199     19 985 kbps     45 837 kbps     01:12:18.879    40 587 kbps     01:12:16.839    31 557 kbps     01:12:16.559    99 927 bytes    461 916 bytes   01:12:38.119
11              1:21:59.559     0:06:52.000     22 070 kbps     34 189 kbps     01:27:01.479    31 024 kbps     01:27:01.479    28 891 kbps     01:28:33.079    110 351 bytes   349 634 bytes   01:27:01.519
12              1:28:51.559     0:07:10.000     20 539 kbps     44 236 kbps     01:30:54.559    37 409 kbps     01:30:21.759    34 797 kbps     01:30:19.599    102 697 bytes   599 573 bytes   01:30:54.599
13              1:36:01.559     0:08:08.000     20 623 kbps     45 591 kbps     01:38:13.759    40 613 kbps     01:38:12.639    37 468 kbps     01:41:36.680    103 113 bytes   565 018 bytes   01:41:16.239
14              1:44:09.559     0:06:57.000     23 078 kbps     44 762 kbps     01:45:27.479    40 376 kbps     01:45:27.360    35 992 kbps     01:45:24.719    115 390 bytes   408 860 bytes   01:45:09.479
15              1:51:06.559     0:08:54.000     20 188 kbps     45 132 kbps     01:59:50.079    37 615 kbps     01:59:47.640    35 337 kbps     01:52:21.399    100 940 bytes   510 998 bytes   01:59:52.519
16              2:00:00.559     0:09:12.000     18 720 kbps     46 994 kbps     02:01:20.040    40 713 kbps     02:04:19.040    35 978 kbps     02:04:15.719    93 600 bytes    598 030 bytes   02:01:33.519
17              2:09:12.559     0:07:41.000     19 136 kbps     45 766 kbps     02:15:52.680    40 391 kbps     02:15:51.919    35 311 kbps     02:09:18.199    95 682 bytes    517 416 bytes   02:09:49.519
18              2:16:53.559     0:07:09.000     18 639 kbps     48 603 kbps     02:20:26.680    39 629 kbps     02:20:25.199    36 338 kbps     02:20:25.199    93 204 bytes    536 780 bytes   02:16:58.079
STREAM DIAGNOSTICS:
File            PID             Type            Codec           Language                Seconds                 Bitrate                 Bytes           Packets
----            ---             ----            -----           --------                --------------          --------------          -------------   -----
00005.M2TS      4113 (0x1011)   0x1B            AVC                                     2880,920                20 000                  7 202 379 990   39 221 324
00005.M2TS      4352 (0x1100)   0x81            AC3             rus (Russian)           2880,920                192                     69 145 344      450 165
00005.M2TS      4353 (0x1101)   0x85            DTS-HD HR       eng (English)           2880,920                3 018                   1 086 874 352   6 482 352
00005.M2TS      4608 (0x1200)   0x90            PGS             rus (Russian)           2880,920                1                       515 428         2 925
00006.M2TS      4113 (0x1011)   0x1B            AVC                                     2880,880                20 001                  7 202 505 199   39 222 337
00006.M2TS      4352 (0x1100)   0x81            AC3             rus (Russian)           2880,880                192                     69 144 576      450 160
00006.M2TS      4353 (0x1101)   0x85            DTS-HD HR       eng (English)           2880,880                3 018                   1 086 858 256   6 482 256
00006.M2TS      4608 (0x1200)   0x90            PGS             rus (Russian)           2880,880                2                       601 752         3 417
00007.M2TS      4113 (0x1011)   0x1B            AVC                                     2880,880                20 001                  7 202 404 209   39 221 659
00007.M2TS      4352 (0x1100)   0x81            AC3             rus (Russian)           2880,880                192                     69 144 576      450 160
00007.M2TS      4353 (0x1101)   0x85            DTS-HD HR       eng (English)           2880,880                3 018                   1 086 854 232   6 482 232
00007.M2TS      4608 (0x1200)   0x90            PGS             rus (Russian)           2880,880                2                       610 614         3 454
<---- END FORUMS PASTE ---->
QUICK SUMMARY:
Disc Title: SECRETS_OF_WILD_INDIA_RUS
Disc Size: 26 829 017 166 bytes
Protection: AACS
BD-Java: No
Playlist: 00009.MPLS
Size: 26 642 193 600 bytes
Length: 2:24:02
Total Bitrate: 24,66 Mbps
Video: MPEG-4 AVC Video / 20001 kbps / 1080i / 25 fps / 16:9 / High Profile 4.1
Audio: English / DTS-HD Audio / 5.1 / 48 kHz / 3018 kbps / 16-bit (DTS Core: 5.1 / 48 kHz / 1509 kbps / 16-bit)
Audio: Russian / Dolby Digital Audio / 2.0 / 48 kHz / 192 kbps
Subtitle: Russian / 1,599 kbps
********************
PLAYLIST: 00006.MPLS
********************
<--- BEGIN FORUMS PASTE --->
Код:
Total   Video
Title                                                           Codec   Length  Movie Size      Disc Size       Bitrate Bitrate Main Audio Track                          Secondary Audio Track
-----                                                           ------  ------- --------------  --------------  ------- ------- ------------------                        ---------------------
00006.MPLS                                                      AVC     0:48:01 8 880 906 240   26 829 017 166  24,66   20,00   DTS-HD Hi-Res 5.1 3018Kbps (48kHz/16-bit)
Код:
DISC INFO:
Disc Title:     SECRETS_OF_WILD_INDIA_RUS
Disc Size:      26 829 017 166 bytes
Protection:     AACS
BD-Java:        No
BDInfo:         0.5.2
PLAYLIST REPORT:
Name:                   00006.MPLS
Size:                   8 880 906 240 bytes
Length:                 0:48:01 (h:m:s)
Total Bitrate:          24,66 Mbps
Description:
VIDEO:
Codec                   Bitrate             Description
-----                   -------             -----------
MPEG-4 AVC Video        20000 kbps          1080i / 25 fps / 16:9 / High Profile 4.1
AUDIO:
Codec                           Language        Bitrate         Description
-----                           --------        -------         -----------
DTS-HD Audio                    English         3018 kbps       5.1 / 48 kHz / 3018 kbps / 16-bit (DTS Core: 5.1 / 48 kHz / 1509 kbps / 16-bit)
Dolby Digital Audio             Russian         192 kbps        2.0 / 48 kHz / 192 kbps
SUBTITLES:
Codec                           Language        Bitrate         Description
-----                           --------        -------         -----------
Presentation Graphics           Russian         1,671 kbps
FILES:
Name            Time In         Length          Size            Total Bitrate
----            -------         ------          ----            -------------
00006.M2TS      0:00:00.000     0:48:01.000     8 880 906 240   24 661
CHAPTERS:
Number          Time In         Length          Avg Video Rate  Max 1-Sec Rate  Max 1-Sec Time  Max 5-Sec Rate  Max 5-Sec Time  Max 10Sec Rate  Max 10Sec Time  Avg Frame Size  Max Frame Size  Max Frame Time
------          -------         ------          --------------  --------------  --------------  --------------  --------------  --------------  --------------  --------------  --------------  --------------
1               0:00:00.000     0:08:27.199     18 236 kbps     58 145 kbps     00:02:58.080    33 369 kbps     00:03:16.360    29 493 kbps     00:03:14.199    91 174 bytes    481 925 bytes   00:02:58.639
2               0:08:27.199     0:06:58.600     19 570 kbps     46 920 kbps     00:11:46.480    40 107 kbps     00:11:46.199    33 972 kbps     00:11:46.199    97 851 bytes    480 609 bytes   00:11:48.160
3               0:15:25.800     0:08:15.000     19 998 kbps     40 854 kbps     00:19:21.919    38 378 kbps     00:18:44.800    37 349 kbps     00:18:43.360    99 989 bytes    509 364 bytes   00:18:49.800
4               0:23:40.800     0:10:18.199     19 985 kbps     45 837 kbps     00:24:18.319    40 587 kbps     00:24:16.279    31 557 kbps     00:24:16.000    99 927 bytes    461 916 bytes   00:24:37.559
5               0:33:59.000     0:06:52.000     22 070 kbps     34 189 kbps     00:39:00.919    31 024 kbps     00:39:00.919    28 891 kbps     00:40:32.519    110 351 bytes   349 634 bytes   00:39:00.959
6               0:40:51.000     0:07:10.000     20 539 kbps     44 236 kbps     00:42:54.000    37 409 kbps     00:42:21.199    34 797 kbps     00:42:19.040    102 704 bytes   599 573 bytes   00:42:54.040
STREAM DIAGNOSTICS:
File            PID             Type            Codec           Language                Seconds                 Bitrate                 Bytes           Packets
----            ---             ----            -----           --------                --------------          --------------          -------------   -----
00006.M2TS      4113 (0x1011)   0x1B            AVC                                     2880,880                20 001                  7 202 505 199   39 222 337
00006.M2TS      4352 (0x1100)   0x81            AC3             rus (Russian)           2880,880                192                     69 144 576      450 160
00006.M2TS      4353 (0x1101)   0x85            DTS-HD HR       eng (English)           2880,880                3 018                   1 086 858 256   6 482 256
00006.M2TS      4608 (0x1200)   0x90            PGS             rus (Russian)           2880,880                2                       601 752         3 417
<---- END FORUMS PASTE ---->
QUICK SUMMARY:
Disc Title: SECRETS_OF_WILD_INDIA_RUS
Disc Size: 26 829 017 166 bytes
Protection: AACS
BD-Java: No
Playlist: 00006.MPLS
Size: 8 880 906 240 bytes
Length: 0:48:01
Total Bitrate: 24,66 Mbps
Video: MPEG-4 AVC Video / 20000 kbps / 1080i / 25 fps / 16:9 / High Profile 4.1
Audio: English / DTS-HD Audio / 5.1 / 48 kHz / 3018 kbps / 16-bit (DTS Core: 5.1 / 48 kHz / 1509 kbps / 16-bit)
Audio: Russian / Dolby Digital Audio / 2.0 / 48 kHz / 192 kbps
Subtitle: Russian / 1,671 kbps
********************
PLAYLIST: 00007.MPLS
********************
<--- BEGIN FORUMS PASTE --->
Код:
Total   Video
Title                                                           Codec   Length  Movie Size      Disc Size       Bitrate Bitrate Main Audio Track                          Secondary Audio Track
-----                                                           ------  ------- --------------  --------------  ------- ------- ------------------                        ---------------------
00007.MPLS                                                      AVC     0:48:01 8 880 777 216   26 829 017 166  24,66   20,00   DTS-HD Hi-Res 5.1 3018Kbps (48kHz/16-bit)
Код:
DISC INFO:
Disc Title:     SECRETS_OF_WILD_INDIA_RUS
Disc Size:      26 829 017 166 bytes
Protection:     AACS
BD-Java:        No
BDInfo:         0.5.2
PLAYLIST REPORT:
Name:                   00007.MPLS
Size:                   8 880 777 216 bytes
Length:                 0:48:01 (h:m:s)
Total Bitrate:          24,66 Mbps
Description:
VIDEO:
Codec                   Bitrate             Description
-----                   -------             -----------
MPEG-4 AVC Video        20000 kbps          1080i / 25 fps / 16:9 / High Profile 4.1
AUDIO:
Codec                           Language        Bitrate         Description
-----                           --------        -------         -----------
DTS-HD Audio                    English         3018 kbps       5.1 / 48 kHz / 3018 kbps / 16-bit (DTS Core: 5.1 / 48 kHz / 1509 kbps / 16-bit)
Dolby Digital Audio             Russian         192 kbps        2.0 / 48 kHz / 192 kbps
SUBTITLES:
Codec                           Language        Bitrate         Description
-----                           --------        -------         -----------
Presentation Graphics           Russian         1,696 kbps
FILES:
Name            Time In         Length          Size            Total Bitrate
----            -------         ------          ----            -------------
00007.M2TS      0:00:00.000     0:48:01.000     8 880 777 216   24 660
CHAPTERS:
Number          Time In         Length          Avg Video Rate  Max 1-Sec Rate  Max 1-Sec Time  Max 5-Sec Rate  Max 5-Sec Time  Max 10Sec Rate  Max 10Sec Time  Avg Frame Size  Max Frame Size  Max Frame Time
------          -------         ------          --------------  --------------  --------------  --------------  --------------  --------------  --------------  --------------  --------------  --------------
1               0:00:00.000     0:08:08.000     20 623 kbps     45 591 kbps     00:02:12.199    40 613 kbps     00:02:11.080    37 468 kbps     00:05:35.120    103 106 bytes   565 018 bytes   00:05:14.680
2               0:08:08.000     0:06:57.000     23 078 kbps     44 762 kbps     00:09:25.919    40 376 kbps     00:09:25.800    35 992 kbps     00:09:23.159    115 390 bytes   408 860 bytes   00:09:07.919
3               0:15:05.000     0:08:54.000     20 188 kbps     45 132 kbps     00:23:48.519    37 615 kbps     00:23:46.080    35 337 kbps     00:16:19.839    100 940 bytes   510 998 bytes   00:23:50.959
4               0:23:59.000     0:09:12.000     18 720 kbps     46 994 kbps     00:25:18.480    40 713 kbps     00:28:17.480    35 978 kbps     00:28:14.159    93 600 bytes    598 030 bytes   00:25:31.959
5               0:33:11.000     0:07:41.000     19 136 kbps     45 766 kbps     00:39:51.120    40 391 kbps     00:39:50.360    35 311 kbps     00:33:16.640    95 682 bytes    517 416 bytes   00:33:47.959
6               0:40:52.000     0:07:09.000     18 639 kbps     48 603 kbps     00:44:25.120    39 629 kbps     00:44:23.639    36 338 kbps     00:44:23.640    93 204 bytes    536 780 bytes   00:40:56.519
STREAM DIAGNOSTICS:
File            PID             Type            Codec           Language                Seconds                 Bitrate                 Bytes           Packets
----            ---             ----            -----           --------                --------------          --------------          -------------   -----
00007.M2TS      4113 (0x1011)   0x1B            AVC                                     2880,880                20 001                  7 202 404 209   39 221 659
00007.M2TS      4352 (0x1100)   0x81            AC3             rus (Russian)           2880,880                192                     69 144 576      450 160
00007.M2TS      4353 (0x1101)   0x85            DTS-HD HR       eng (English)           2880,880                3 018                   1 086 854 232   6 482 232
00007.M2TS      4608 (0x1200)   0x90            PGS             rus (Russian)           2880,880                2                       610 614         3 454
<---- END FORUMS PASTE ---->
QUICK SUMMARY:
Disc Title: SECRETS_OF_WILD_INDIA_RUS
Disc Size: 26 829 017 166 bytes
Protection: AACS
BD-Java: No
Playlist: 00007.MPLS
Size: 8 880 777 216 bytes
Length: 0:48:01
Total Bitrate: 24,66 Mbps
Video: MPEG-4 AVC Video / 20000 kbps / 1080i / 25 fps / 16:9 / High Profile 4.1
Audio: English / DTS-HD Audio / 5.1 / 48 kHz / 3018 kbps / 16-bit (DTS Core: 5.1 / 48 kHz / 1509 kbps / 16-bit)
Audio: Russian / Dolby Digital Audio / 2.0 / 48 kHz / 192 kbps
Subtitle: Russian / 1,696 kbps
********************
PLAYLIST: 00005.MPLS
********************
<--- BEGIN FORUMS PASTE --->
Код:
Total   Video
Title                                                           Codec   Length  Movie Size      Disc Size       Bitrate Bitrate Main Audio Track                          Secondary Audio Track
-----                                                           ------  ------- --------------  --------------  ------- ------- ------------------                        ---------------------
00005.MPLS                                                      AVC     0:48:00 8 880 510 144   26 829 017 166  24,66   20,00   DTS-HD Hi-Res 5.1 3018Kbps (48kHz/16-bit)
Код:
DISC INFO:
Disc Title:     SECRETS_OF_WILD_INDIA_RUS
Disc Size:      26 829 017 166 bytes
Protection:     AACS
BD-Java:        No
BDInfo:         0.5.2
PLAYLIST REPORT:
Name:                   00005.MPLS
Size:                   8 880 510 144 bytes
Length:                 0:48:00 (h:m:s)
Total Bitrate:          24,66 Mbps
Description:
VIDEO:
Codec                   Bitrate             Description
-----                   -------             -----------
MPEG-4 AVC Video        20003 kbps          1080i / 25 fps / 16:9 / High Profile 4.1
AUDIO:
Codec                           Language        Bitrate         Description
-----                           --------        -------         -----------
DTS-HD Audio                    English         3018 kbps       5.1 / 48 kHz / 3018 kbps / 16-bit (DTS Core: 5.1 / 48 kHz / 1509 kbps / 16-bit)
Dolby Digital Audio             Russian         192 kbps        2.0 / 48 kHz / 192 kbps
SUBTITLES:
Codec                           Language        Bitrate         Description
-----                           --------        -------         -----------
Presentation Graphics           Russian         1,431 kbps
FILES:
Name            Time In         Length          Size            Total Bitrate
----            -------         ------          ----            -------------
00005.M2TS      0:00:00.000     0:48:00.559     8 880 510 144   24 663
CHAPTERS:
Number          Time In         Length          Avg Video Rate  Max 1-Sec Rate  Max 1-Sec Time  Max 5-Sec Rate  Max 5-Sec Time  Max 10Sec Rate  Max 10Sec Time  Avg Frame Size  Max Frame Size  Max Frame Time
------          -------         ------          --------------  --------------  --------------  --------------  --------------  --------------  --------------  --------------  --------------  --------------
1               0:00:00.000     0:08:09.000     20 278 kbps     42 693 kbps     00:07:04.279    37 478 kbps     00:06:20.279    35 618 kbps     00:03:09.919    101 281 bytes   553 228 bytes   00:07:04.319
2               0:08:09.000     0:08:07.000     21 075 kbps     47 104 kbps     00:13:47.720    39 086 kbps     00:11:47.800    33 968 kbps     00:14:57.839    105 377 bytes   469 394 bytes   00:08:20.440
3               0:16:16.000     0:07:56.599     20 193 kbps     51 056 kbps     00:21:31.480    40 190 kbps     00:20:02.360    35 895 kbps     00:20:01.720    100 966 bytes   562 031 bytes   00:22:00.720
4               0:24:12.599     0:08:42.400     21 432 kbps     40 252 kbps     00:30:23.639    35 335 kbps     00:25:47.559    33 347 kbps     00:25:43.720    107 158 bytes   532 441 bytes   00:30:21.760
5               0:32:55.000     0:07:29.000     18 913 kbps     51 041 kbps     00:39:58.800    39 187 kbps     00:39:58.800    36 579 kbps     00:33:54.839    94 566 bytes    562 164 bytes   00:34:03.919
6               0:40:24.000     0:07:36.559     17 802 kbps     43 387 kbps     00:45:14.319    34 784 kbps     00:45:18.120    31 362 kbps     00:45:13.720    89 016 bytes    583 693 bytes   00:45:14.360
STREAM DIAGNOSTICS:
File            PID             Type            Codec           Language                Seconds                 Bitrate                 Bytes           Packets
----            ---             ----            -----           --------                --------------          --------------          -------------   -----
00005.M2TS      4113 (0x1011)   0x1B            AVC                                     2880,920                20 000                  7 202 379 990   39 221 324
00005.M2TS      4352 (0x1100)   0x81            AC3             rus (Russian)           2880,920                192                     69 145 344      450 165
00005.M2TS      4353 (0x1101)   0x85            DTS-HD HR       eng (English)           2880,920                3 018                   1 086 874 352   6 482 352
00005.M2TS      4608 (0x1200)   0x90            PGS             rus (Russian)           2880,920                1                       515 428         2 925
<---- END FORUMS PASTE ---->
QUICK SUMMARY:
Disc Title: SECRETS_OF_WILD_INDIA_RUS
Disc Size: 26 829 017 166 bytes
Protection: AACS
BD-Java: No
Playlist: 00005.MPLS
Size: 8 880 510 144 bytes
Length: 0:48:00
Total Bitrate: 24,66 Mbps
Video: MPEG-4 AVC Video / 20003 kbps / 1080i / 25 fps / 16:9 / High Profile 4.1
Audio: English / DTS-HD Audio / 5.1 / 48 kHz / 3018 kbps / 16-bit (DTS Core: 5.1 / 48 kHz / 1509 kbps / 16-bit)
Audio: Russian / Dolby Digital Audio / 2.0 / 48 kHz / 192 kbps
Subtitle: Russian / 1,431 kbps
********************
PLAYLIST: 00001.MPLS
********************
<--- BEGIN FORUMS PASTE --->
Код:
Total   Video
Title                                                           Codec   Length  Movie Size      Disc Size       Bitrate Bitrate Main Audio Track                          Secondary Audio Track
-----                                                           ------  ------- --------------  --------------  ------- ------- ------------------                        ---------------------
00001.MPLS                                                      AVC     0:00:14 8 099 328       26 829 017 166  4,41    3,67    DD AC3 2.0 448Kbps
Код:
DISC INFO:
Disc Title:     SECRETS_OF_WILD_INDIA_RUS
Disc Size:      26 829 017 166 bytes
Protection:     AACS
BD-Java:        No
BDInfo:         0.5.2
PLAYLIST REPORT:
Name:                   00001.MPLS
Size:                   8 099 328 bytes
Length:                 0:00:14 (h:m:s)
Total Bitrate:          4,41 Mbps
Description:
VIDEO:
Codec                   Bitrate             Description
-----                   -------             -----------
MPEG-4 AVC Video        3673 kbps           1080i / 29,970 fps / 16:9 / High Profile 4.1
AUDIO:
Codec                           Language        Bitrate         Description
-----                           --------        -------         -----------
Dolby Digital Audio             English         448 kbps        2.0 / 48 kHz / 448 kbps
FILES:
Name            Time In         Length          Size            Total Bitrate
----            -------         ------          ----            -------------
00001.M2TS      0:00:00.000     0:00:14.681     8 099 328       4 393
CHAPTERS:
Number          Time In         Length          Avg Video Rate  Max 1-Sec Rate  Max 1-Sec Time  Max 5-Sec Rate  Max 5-Sec Time  Max 10Sec Rate  Max 10Sec Time  Avg Frame Size  Max Frame Size  Max Frame Time
------          -------         ------          --------------  --------------  --------------  --------------  --------------  --------------  --------------  --------------  --------------  --------------
1               0:00:00.000     0:00:14.681     3 691 kbps      5 644 kbps      00:00:07.674    5 193 kbps      00:00:05.505    4 729 kbps      00:00:02.936    15 396 bytes    112 266 bytes   00:00:13.446
STREAM DIAGNOSTICS:
File            PID             Type            Codec           Language                Seconds                 Bitrate                 Bytes           Packets
----            ---             ----            -----           --------                --------------          --------------          -------------   -----
00001.M2TS      4113 (0x1011)   0x1B            AVC                                     14,615                  3 708                   6 774 029       37 091
00001.M2TS      4352 (0x1100)   0x81            AC3             eng (English)           14,615                  450                     822 528         4 590
<---- END FORUMS PASTE ---->
QUICK SUMMARY:
Disc Title: SECRETS_OF_WILD_INDIA_RUS
Disc Size: 26 829 017 166 bytes
Protection: AACS
BD-Java: No
Playlist: 00001.MPLS
Size: 8 099 328 bytes
Length: 0:00:14
Total Bitrate: 4,41 Mbps
Video: MPEG-4 AVC Video / 3673 kbps / 1080i / 29,970 fps / 16:9 / High Profile 4.1
Audio: English / Dolby Digital Audio / 2.0 / 48 kHz / 448 kbps
********************
PLAYLIST: 00002.MPLS
********************
<--- BEGIN FORUMS PASTE --->
Код:
Total   Video
Title                                                           Codec   Length  Movie Size      Disc Size       Bitrate Bitrate Main Audio Track                          Secondary Audio Track
-----                                                           ------  ------- --------------  --------------  ------- ------- ------------------                        ---------------------
00002.MPLS                                                      MPEG-2  0:00:12 18 604 032      26 829 017 166  12,36   11,53   DD AC3 2.0 192Kbps
Код:
DISC INFO:
Disc Title:     SECRETS_OF_WILD_INDIA_RUS
Disc Size:      26 829 017 166 bytes
Protection:     AACS
BD-Java:        No
BDInfo:         0.5.2
PLAYLIST REPORT:
Name:                   00002.MPLS
Size:                   18 604 032 bytes
Length:                 0:00:12 (h:m:s)
Total Bitrate:          12,36 Mbps
Description:
VIDEO:
Codec                   Bitrate             Description
-----                   -------             -----------
MPEG-2 Video            11534 kbps          480i / 29,970 fps / 16:9
AUDIO:
Codec                           Language        Bitrate         Description
-----                           --------        -------         -----------
Dolby Digital Audio             English         192 kbps        2.0 / 48 kHz / 192 kbps
FILES:
Name            Time In         Length          Size            Total Bitrate
----            -------         ------          ----            -------------
00002.M2TS      0:00:00.000     0:00:12.045     18 604 032      12 356
CHAPTERS:
Number          Time In         Length          Avg Video Rate  Max 1-Sec Rate  Max 1-Sec Time  Max 5-Sec Rate  Max 5-Sec Time  Max 10Sec Rate  Max 10Sec Time  Avg Frame Size  Max Frame Size  Max Frame Time
------          -------         ------          --------------  --------------  --------------  --------------  --------------  --------------  --------------  --------------  --------------  --------------
1               0:00:00.000     0:00:12.045     11 534 kbps     26 244 kbps     00:00:04.971    21 809 kbps     00:00:02.902    13 816 kbps     00:00:00.200    48 107 bytes    238 727 bytes   00:00:05.538
STREAM DIAGNOSTICS:
File            PID             Type            Codec           Language                Seconds                 Bitrate                 Bytes           Packets
----            ---             ----            -----           --------                --------------          --------------          -------------   -----
00002.M2TS      4113 (0x1011)   0x02            MPEG-2                                  11,979                  11 598                  17 366 592      94 596
00002.M2TS      4352 (0x1100)   0x81            AC3             eng (English)           11,979                  193                     289 536         1 885
<---- END FORUMS PASTE ---->
QUICK SUMMARY:
Disc Title: SECRETS_OF_WILD_INDIA_RUS
Disc Size: 26 829 017 166 bytes
Protection: AACS
BD-Java: No
Playlist: 00002.MPLS
Size: 18 604 032 bytes
Length: 0:00:12
Total Bitrate: 12,36 Mbps
Video: MPEG-2 Video / 11534 kbps / 480i / 29,970 fps / 16:9
Audio: English / Dolby Digital Audio / 2.0 / 48 kHz / 192 kbps
Download
Для скачивания .torrent файлов необходима регистрация
Сайт не распространяет и не хранит электронные версии произведений, а лишь предоставляет доступ к создаваемому пользователями каталогу ссылок на торрент-файлы, которые содержат только списки хеш-сумм
[Профиль]  [ЛС] 

roger.fed

Стаж: 9 лет 3 месяца

Сообщений: 728

roger.fed · 02-Апр-13 03:04 (спустя 2 дня 7 часов)

сделайте рип в ави по 800мб пжлста !
[Профиль]  [ЛС] 

JeansMike

Стаж: 9 лет 2 месяца

Сообщений: 11


JeansMike · 29-Апр-13 09:17 (спустя 27 дней, ред. 29-Апр-13 09:17)

Записать его на однослойный Blu-ray Disc не получается (не входит по размеру)...
[Профиль]  [ЛС] 

REVORT

Стаж: 7 лет 3 месяца

Сообщений: 11


REVORT · 25-Авг-13 07:02 (спустя 3 месяца 25 дней)

JeansMike писал(а):
59075512Записать его на однослойный Blu-ray Disc не получается (не входит по размеру)...
А жаль, я бы закачал
[Профиль]  [ЛС] 

rdva

Стаж: 12 лет 7 месяцев

Сообщений: 35


rdva · 15-Окт-13 22:09 (спустя 1 месяц 21 день)

Русский перевод местами пропадает, примерно на минуту, вместо него идет оригинальная озвучка на английском. Смотрел через Media Player Classic HC 1.5.2.3456. Сам фильм неплохой, операторская работа хороша.
[Профиль]  [ЛС] 

aadona

Стаж: 6 лет 8 месяцев

Сообщений: 9


aadona · 07-Дек-13 13:01 (спустя 1 месяц 22 дня)

По скринам , это не Блюр , похоже исходник HDTV.
Зачем радувать до 1080 и делать типа Блюр ?
[Профиль]  [ЛС] 

La-Piovra4

Стаж: 9 лет 8 месяцев

Сообщений: 271

La-Piovra4 · 18-Янв-14 21:53 (спустя 1 месяц 11 дней)

JeansMike писал(а):
59075512Записать его на однослойный Blu-ray Disc не получается (не входит по размеру)...
Получится, я впихнул и все нормуль. Берете DVDfab удаляете оригинальную звуковую дорожку HD и все входит.
[Профиль]  [ЛС] 

nbes

Стаж: 8 лет 2 месяца

Сообщений: 51


nbes · 31-Янв-14 12:25 (спустя 12 дней)

У меня на компьютере только английская речь звучит. Как сделать чтобы по-русски звучало? Я в компьютере совсем не сильна. Открываю папку BDMV, затем index.
[Профиль]  [ЛС] 

shikitawa

Стаж: 6 лет 7 месяцев

Сообщений: 2

shikitawa · 01-Мар-14 11:16 (спустя 28 дней)

Сам фильм неплохой, операторская работа хороша.
[Профиль]  [ЛС] 

tarakanishe88

Заслуженный хранитель

Стаж: 9 лет 2 месяца

Сообщений: 988

tarakanishe88 · 09-Мар-14 17:02 (спустя 8 дней)

nbes писал(а):
62763132Как сделать чтобы по-русски звучало?
Поставить TotalMedia Theatre
[Профиль]  [ЛС] 

krot-12-1972

Стаж: 11 лет 3 месяца

Сообщений: 31

krot-12-1972 · 14-Апр-14 19:03 (спустя 1 месяц 5 дней)

Спасибо, а обложку и накатку на диск может кто-нибудь выложить?
[Профиль]  [ЛС] 

Гость


Гость · 23-Сен-15 21:06 (спустя 1 год 5 месяцев)

На фига написано, что есть субтитры, если их нет?
 

rosenduft

Стаж: 9 лет 3 месяца

Сообщений: 52


rosenduft · 09-Май-16 00:44 (спустя 7 месяцев, ред. 09-Май-16 00:44)

Друзья! Если на ваших жёстких дисках много свободного места, либо имеются внешние диски, то файлы из этой раздачи или подобные этой можно с помощью Nero Express записать в образ диска, а сам образ смонтировать на виртуальный привод Clone DVD. Компьютер после этого будет крутить образ, как будто это диск blu-ray. Кроме этого, с помощью специальной программы Make MKV есть возможность экпортиовать весь диск в отдельный файл MKV, затем ужать его в конвертере до приемлемых размеров, перевести в MPEG-2 и прожечь на болвану BDR - либо в виде диска данных, либо в форме "художественного" диска blu-ray, ес ли есть навык использования программы Nero Video, например, из подборки Nero 11. Для просмотра образов и дисков blu-ray используйте приложение Cyberlink 10.
[Профиль]  [ЛС] 
 
Ответить
Loading...
Error