[RM] [restored] [declipped] [16/44] (Progressive Rock, Hard Rock) Rush - Clockwork Angels - 2012, FLAC (tracks+.cue)

Страницы:  1

Ответить
Автор
Сообщение

Лисной Йожыг

Стаж: 10 лет 9 месяцев

Сообщений: 922

Лисной Йожыг · 11-Мар-18 17:36 (1 год 4 месяца назад, ред. 02-Авг-18 20:30)



Жанр: Progressive Rock, Hard Rock
Год выпуска: 2012
Аудио кодек: FLAC
Тип рипа: tracks+.cue
Формат раздачи: 16/44
Продолжительность: 01:06:06
Наличие сканов в содержимом раздачи: нет
Исходник для обработки: Дискография
Обработка: Устранение клиппинга, восстановление динамического диапазона.

Studio albums
2012 - Clockwork Angels
01. Caravan (5:40)
02. BU2B (5:10)
03. Clockwork Angels (7:31)
04. The Anarchist (6:52)
05. Carnies (4:52)
06. Halo Effect (3:14)
07. Seven Cities of Gold (6:34)
08. The Wreckers (5:01)
09. Headlong Flight (7:20)
10. BU2B2 (1:28)
11. Wish Them Well (5:25)
12. The Garden (6:59)
Исходное издание: Roadrunner Records ‎– WPCR-14471
Обработка: Проведены деклиппинг и декомпрессия.

Спектр, АЧХ, Уровень записи, Динамический диапазон
Код:
foobar2000 1.3.9 / Замер динамического диапазона (DR) 1.1.1
Дата отчёта: 2018-03-11 16:56:57
--------------------------------------------------------------------------------
Анализ:   Rush / Clockwork Angels
--------------------------------------------------------------------------------
DR         Пики          RMS        Продолжительность трека
--------------------------------------------------------------------------------
DR11      -1.03 дБ   -13.55 дБ      5:40 1-Caravan
DR11      -1.09 дБ   -13.79 дБ      5:10 2-BU2B
DR11      -1.04 дБ   -14.27 дБ      7:31 3-Clockwork Angels
DR11      -1.16 дБ   -14.42 дБ      6:52 4-The Anarchist
DR11      -1.88 дБ   -15.03 дБ      4:52 5-Carnies
DR12      -2.25 дБ   -16.52 дБ      3:14 6-Halo Effect
DR11      -1.13 дБ   -14.27 дБ      6:34 7-Seven Cities of Gold
DR11      -0.84 дБ   -13.68 дБ      5:01 8-The Wreckers
DR11      -0.99 дБ   -13.67 дБ      7:20 9-Headlong Flight
DR11      -7.47 дБ   -23.24 дБ      1:28 10-BU2B2
DR12      -0.58 дБ   -14.26 дБ      5:25 11-Wish Them Well
DR11      -0.80 дБ   -15.22 дБ      6:59 12-The Garden
--------------------------------------------------------------------------------
Количество треков: 12
Реальные значения DR: DR11
Частота:  44100 Гц
Каналов:  2
Разрядность:   16
Битрейт:  871 кбит/с
Кодек:   FLAC
Дополнительная информация
Обработка: Adobe Audition с плагинами Stereo Tool (Perfect Declipper, Natural Dynamics), Fabfilter Pro-L.
Мониторинг результата:
Стационарная аппаратура: NAD D 1050 + Beyerdynamic DT 990 Pro и Rotel RA-10 + Jamo C603
Мобильная аппаратура: Meizu MX2 + Sennheiser CX 980
Примечание: Деклиппинг и восстановление динамического диапазона - не панацея от некачественной записи. Целью реставрации является меньшая усталость при прослушивании, и звучание, приближенное к тому, которое задумывалось звукорежиссером, до вмешательства маркетологов.
Материалы по теме "Война громкости": 1, 2, 3, 4

Другие раздачи в рамках проекта можно найти здесь
Download
Для скачивания .torrent файлов необходима регистрация
Сайт не распространяет и не хранит электронные версии произведений, а лишь предоставляет доступ к создаваемому пользователями каталогу ссылок на торрент-файлы, которые содержат только списки хеш-сумм
[Профиль]  [ЛС] 

mayleys

Стаж: 8 лет

Сообщений: 40


mayleys · 24-Мар-18 08:37 (спустя 12 дней)

Спасибо большое. Даже на LP звук довольно хреновый. У вас намного лучше звучит.
[Профиль]  [ЛС] 

Лисной Йожыг

Стаж: 10 лет 9 месяцев

Сообщений: 922

Лисной Йожыг · 27-Мар-18 13:46 (спустя 3 дня)

mayleys, благодарю: я старался.
Приятного прослушивания
[Профиль]  [ЛС] 
 
Ответить
Loading...
Error