[RM] [restored] [declipped] [16/44] (Post-Grunge, Hard Rock) Nickelback - Дискография - 1996-2017, FLAC (tracks+.cue)

Страницы:  1

Ответить
Автор
Сообщение

Лисной Йожыг

Стаж: 10 лет 9 месяцев

Сообщений: 922

Лисной Йожыг · 05-Май-16 20:16 (3 года 2 месяца назад, ред. 03-Июл-18 12:01)



Жанр: Post-Grunge, Hard Rock
Год выпуска: 1996-2017
Аудио кодек: FLAC
Тип рипа: tracks+.cue
Формат раздачи: 16/44
Продолжительность: 06:39:13
Исходник для обработки: Curb; The State; Silver Side Up; The Long Road; All The Right Reasons; Dark Horse; Here And Now; No Fixed Address; Feed the Machine
Обработка: Устранение клиппинга, восстановление динамического диапазона.

Studio albums
1996 - Curb
01. Little Friend (3:49)
02. Pusher (4:01)
03. Detangler (3:41)
04. Curb (4:51)
05. Where? (4:27)
06. Falls Back on (2:57)
07. Sea Groove (3:58)
08. Fly (2:53)
09. Just Four (3:54)
10. Left (4:03)
11. Window Shopper (3:43)
12. I Don't Have (4:05)
Исходное издание: Factor ‎– NKL 555
Обработка: Проведены деклиппинг и декомпрессия.
Спектр, АЧХ, Уровень записи, Динамический диапазон
АЧХ до обработки - красного цвета, после обработки - зеленого.
Код:
foobar2000 1.3.9 / Замер динамического диапазона (DR) 1.1.1
Дата отчёта: 2017-07-07 13:03:41
--------------------------------------------------------------------------------
Анализ:   Nickelback / Curb
--------------------------------------------------------------------------------
DR         Пики          RMS        Продолжительность трека
--------------------------------------------------------------------------------
DR10      -0.30 дБ   -12.19 дБ      3:49 1-Little Friend
DR11      -0.39 дБ   -12.85 дБ      4:01 2-Pusher
DR10      -0.30 дБ   -11.43 дБ      3:41 3-Detangler
DR10      -0.30 дБ   -12.11 дБ      4:51 4-Curb
DR11      -0.44 дБ   -12.87 дБ      4:27 5-Where?
DR10      -0.32 дБ   -12.00 дБ      2:57 6-Falls Back on
DR10      -0.30 дБ   -11.15 дБ      3:58 7-Sea Groove
DR10      -0.30 дБ   -12.18 дБ      2:53 8-Fly
DR10      -0.48 дБ   -11.75 дБ      3:54 9-Just Four
DR10      -0.47 дБ   -11.73 дБ      4:03 10-Left
DR11      -0.30 дБ   -12.05 дБ      3:43 11-Window Shopper
DR10      -0.32 дБ   -11.80 дБ      4:05 12-I Don't Have
--------------------------------------------------------------------------------
Количество треков: 12
Реальные значения DR: DR10
Частота:  44100 Гц
Каналов:  2
Разрядность:   16
Битрейт:  939 кбит/с
Кодек:   FLAC
1999 - The State
01. Breathe (3:58)
02. Cowboy Hat (3:56)
03. Leader of Men (3:31)
04. Old Enough (2:46)
05. Worthy to Say (4:06)
06. Diggin' This (3:02)
07. Deep (2:48)
08. One Last Run (3:31)
09. Not Leavin' Yet (3:45)
10. Hold Out Your Hand (4:08)
11. Leader of Men [acoustic] (3:24)
Исходное издание: Universal Music Russia ‎– 460502600127
Обработка: Проведены деклиппинг и декомпрессия.
Спектр, АЧХ, Уровень записи, Динамический диапазон
АЧХ до обработки - красного цвета, после обработки - зеленого.
Код:
foobar2000 1.3.9 / Замер динамического диапазона (DR) 1.1.1
Дата отчёта: 2017-07-07 13:05:22
--------------------------------------------------------------------------------
Анализ:   Nickelback / The State
--------------------------------------------------------------------------------
DR         Пики          RMS        Продолжительность трека
--------------------------------------------------------------------------------
DR10      -0.64 дБ   -12.24 дБ      3:58 1-Breathe
DR11      -0.94 дБ   -13.96 дБ      3:56 2-Cowboy Hat
DR10      -1.15 дБ   -14.43 дБ      3:31 3-Leader of Men
DR9       -1.40 дБ   -12.51 дБ      2:46 4-Old Enough
DR11      -0.36 дБ   -14.59 дБ      4:06 5-Worthy to Say
DR11      -0.55 дБ   -13.24 дБ      3:02 6-Diggin' This
DR11      -1.02 дБ   -13.61 дБ      2:48 7-Deep
DR9       -1.02 дБ   -12.20 дБ      3:31 8-One Last Run
DR11      -1.03 дБ   -13.32 дБ      3:45 9-Not Leavin' Yet
DR10      -0.48 дБ   -12.37 дБ      4:08 10-Hold Out Your Hand
DR10      -1.95 дБ   -14.81 дБ      3:24 11-Leader of Men [acoustic]
--------------------------------------------------------------------------------
Количество треков: 11
Реальные значения DR: DR10
Частота:  44100 Гц
Каналов:  2
Разрядность:   16
Битрейт:  878 кбит/с
Кодек:   FLAC
2001 - Silver Side Up
01. Never Again (4:21)
02. How You Remind Me (3:44)
03. Woke Up This Morning (3:50)
04. Too Bad (3:52)
05. Just For (4:03)
06. Hollywood (3:05)
07. Money Bought (3:25)
08. Where Do I Hide (3:38)
09. Hangnail (3:54)
10. Good Times Gone (5:20)
11. Learn the Hard Way [bonus track] (2:55)
Исходное издание: Roadrunner Records ‎– RRCY-29175
Обработка: Проведены деклиппинг и декомпрессия.
Спектр, АЧХ, Уровень записи, Динамический диапазон
АЧХ до обработки - красного цвета, после обработки - зеленого.
Код:
foobar2000 1.3.9 / Замер динамического диапазона (DR) 1.1.1
Дата отчёта: 2017-07-07 13:09:04
--------------------------------------------------------------------------------
Анализ:   Nickelback / Silver Side Up
--------------------------------------------------------------------------------
DR         Пики          RMS        Продолжительность трека
--------------------------------------------------------------------------------
DR11      -1.17 дБ   -13.69 дБ      4:21 1-Never Again
DR11      -1.02 дБ   -14.84 дБ      3:44 2-How You Remind Me
DR11      -1.52 дБ   -14.64 дБ      3:50 3-Woke Up This Morning
DR12      -0.36 дБ   -14.52 дБ      3:52 4-Too Bad
DR11      -1.08 дБ   -14.62 дБ      4:03 5-Just For
DR11      -1.30 дБ   -14.81 дБ      3:05 6-Hollywood
DR11      -1.01 дБ   -14.50 дБ      3:25 7-Money Bought
DR11      -0.88 дБ   -13.92 дБ      3:38 8-Where Do I Hide
DR12      -1.30 дБ   -15.72 дБ      3:54 9-Hangnail
DR12      -1.76 дБ   -16.95 дБ      5:20 10-Good Times Gone
DR12      -0.99 дБ   -14.86 дБ      2:55 11-Learn the Hard Way [bonus track]
--------------------------------------------------------------------------------
Количество треков: 11
Реальные значения DR: DR11
Частота:  44100 Гц
Каналов:  2
Разрядность:   16
Битрейт:  852 кбит/с
Кодек:   FLAC
2003 - The Long Road
01. Flat on the Floor (2:03)
02. Do This Anymore (4:04)
03. Someday (3:27)
04. Believe It or Not (4:08)
05. Feelin' Way Too Damn Good [feat. Corinne Youchezin] (4:17)
06. Because of You (3:30)
07. Figured You Out (3:49)
08. Should've Listened (3:43)
09. Throw Yourself Away (3:55)
10. Another Hole in the Head (3:36)
11. See You at the Show (4:08)
12. Someday [acoustic] [bonus track] (3:26)
13. Slow Motion [bonus track] (3:32)
14. Saturday Night's Alright (For Fighting) [bonus track] (3:44)
15. Yanking Out My... [bonus track] (3:36)
Исходное издание: Roadrunner Records ‎– RRCY-29176
Обработка: Проведены деклиппинг и декомпрессия.

Примечание: 14 и 15 треки взяты из этой раздачи.
Спектр, АЧХ, Уровень записи, Динамический диапазон
АЧХ до обработки - красного цвета, после обработки - зеленого.
Код:
foobar2000 1.3.9 / Замер динамического диапазона (DR) 1.1.1
Дата отчёта: 2017-07-07 13:14:28
--------------------------------------------------------------------------------
Анализ:   Nickelback / The Long Road
--------------------------------------------------------------------------------
DR         Пики          RMS        Продолжительность трека
--------------------------------------------------------------------------------
DR11      -0.30 дБ   -12.88 дБ      2:03 1-Flat on the Floor
DR11      -0.46 дБ   -12.87 дБ      4:04 2-Do This Anymore
DR12      -0.41 дБ   -13.97 дБ      3:27 3-Someday
DR11      -0.30 дБ   -13.21 дБ      4:08 4-Believe It or Not
DR11      -0.30 дБ   -13.53 дБ      4:17 5-Feelin' Way Too Damn Good [feat. Corinne Youchezin]
DR11      -0.30 дБ   -12.98 дБ      3:30 6-Because of You
DR10      -0.30 дБ   -12.56 дБ      3:49 7-Figured You Out
DR12      -0.30 дБ   -14.29 дБ      3:43 8-Should've Listened
DR11      -0.30 дБ   -12.40 дБ      3:55 9-Throw Yourself Away
DR10      -0.30 дБ   -12.55 дБ      3:36 10-Another Hole in the Head
DR11      -0.39 дБ   -14.21 дБ      4:08 11-See You at the Show
DR11      -1.80 дБ   -13.74 дБ      3:26 12-Someday [acoustic] [bonus track]
DR11      -0.36 дБ   -12.83 дБ      3:32 13-Slow Motion [bonus track]
DR11      -0.48 дБ   -12.93 дБ      3:44 14-Saturday Night's Alright (For Fighting) [bonus track]
DR10      -0.52 дБ   -12.28 дБ      3:36 15-Yanking Out My... [bonus track]
--------------------------------------------------------------------------------
Количество треков: 15
Реальные значения DR: DR11
Частота:  44100 Гц
Каналов:  2
Разрядность:   16
Битрейт:  936 кбит/с
Кодек:   FLAC
2005 - All the Right Reasons
01. Follow You Home (4:20)
02. Fight for All the Wrong Reasons (3:44)
03. Photograph (4:19)
04. Animals (3:07)
05. Savin' Me (3:39)
06. Far Away (3:58)
07. Next Contestant (3:35)
08. Side of a Bullet (3:01)
09. If Everyone Cared (3:38)
10. Someone That You're With (4:02)
11. Rockstar (4:19)
12. We Will Rock You [Queen cover] [bonus track] (2:00)
13. Someday [live acoustic version] [bonus track] (3:24)
Исходное издание: Roadrunner Records ‎– RRCY-21252
Обработка: Проведены деклиппинг и декомпрессия.
Спектр, АЧХ, Уровень записи, Динамический диапазон
АЧХ до обработки - красного цвета, после обработки - зеленого.
Код:
foobar2000 1.3.9 / Замер динамического диапазона (DR) 1.1.1
Дата отчёта: 2017-07-07 13:20:57
--------------------------------------------------------------------------------
Анализ:   Nickelback / All the Right Reasons
--------------------------------------------------------------------------------
DR         Пики          RMS        Продолжительность трека
--------------------------------------------------------------------------------
DR11      -0.36 дБ   -12.77 дБ      4:20 1-Follow You Home
DR10      -0.59 дБ   -12.81 дБ      3:44 2-Fight for All the Wrong Reasons
DR10      -1.08 дБ   -13.56 дБ      4:19 3-Photograph
DR11      -0.92 дБ   -12.76 дБ      3:07 4-Animals
DR10      -0.85 дБ   -14.09 дБ      3:39 5-Savin' Me
DR12      -0.88 дБ   -15.36 дБ      3:58 6-Far Away
DR11      -0.74 дБ   -13.85 дБ      3:35 7-Next Contestant
DR11      -0.43 дБ   -12.72 дБ      3:01 8-Side of a Bullet
DR11      -0.48 дБ   -14.39 дБ      3:38 9-If Everyone Cared
DR10      -1.00 дБ   -12.53 дБ      4:02 10-Someone That You're With
DR12      -0.45 дБ   -14.59 дБ      4:19 11-Rockstar
DR10      -2.91 дБ   -14.28 дБ      2:00 12-We Will Rock You [Queen cover] [bonus track]
DR13      -0.97 дБ   -14.81 дБ      3:24 13-Someday [live acoustic version] [bonus track]
--------------------------------------------------------------------------------
Количество треков: 13
Реальные значения DR: DR11
Частота:  44100 Гц
Каналов:  2
Разрядность:   16
Битрейт:  920 кбит/с
Кодек:   FLAC
2008 - Dark Horse
01. Something in Your Mouth (3:39)
02. Burn It to the Ground (3:31)
03. Gotta Be Somebody (4:13)
04. I'd Come for You (4:23)
05. Next Go Round (3:45)
06. Just to Get High (4:02)
07. Never Gonna Be Alone (3:47)
08. Shakin' Hands (3:40)
09. S.E.X. (3:55)
10. If Today Was Your Last Day (4:08)
11. This Afternoon (4:35)
Исходное издание: Roadrunner Records ‎– RR 8028-2
Обработка: Проведены деклиппинг и декомпрессия.
Спектр, АЧХ, Уровень записи, Динамический диапазон
АЧХ до обработки - красного цвета, после обработки - зеленого.
Код:
foobar2000 1.3.9 / Замер динамического диапазона (DR) 1.1.1
Дата отчёта: 2017-07-07 13:28:25
--------------------------------------------------------------------------------
Анализ:   Nickelback / Dark Horse
--------------------------------------------------------------------------------
DR         Пики          RMS        Продолжительность трека
--------------------------------------------------------------------------------
DR11      -0.47 дБ   -13.00 дБ      3:39 1-Something in Your Mouth
DR10      -0.97 дБ   -13.27 дБ      3:31 2-Burn It to the Ground
DR10      -1.44 дБ   -13.89 дБ      4:13 3-Gotta Be Somebody
DR11      -1.11 дБ   -14.28 дБ      4:23 4-I'd Come for You
DR10      -0.43 дБ   -12.64 дБ      3:45 5-Next Go Round
DR10      -0.37 дБ   -13.90 дБ      4:02 6-Just to Get High
DR10      -1.23 дБ   -14.21 дБ      3:47 7-Never Gonna Be Alone
DR11      -0.65 дБ   -13.67 дБ      3:40 8-Shakin' Hands
DR10      -0.57 дБ   -13.16 дБ      3:55 9-S.E.X.
DR10      -0.83 дБ   -13.40 дБ      4:08 10-If Today Was Your Last Day
DR11      -0.97 дБ   -14.15 дБ      4:35 11-This Afternoon
--------------------------------------------------------------------------------
Количество треков: 11
Реальные значения DR: DR10
Частота:  44100 Гц
Каналов:  2
Разрядность:   16
Битрейт:  906 кбит/с
Кодек:   FLAC
2011 - Here and Now
01. This Means War (3:21)
02. Bottoms Up (3:37)
03. When We Stand Together (3:11)
04. Midnight Queen (3:15)
05. Gotta Get Me Some (3:42)
06. Lullaby (3:48)
07. Kiss It Goodbye (3:35)
08. Trying Not to Love You (4:12)
09. Holding on to Heaven (3:52)
10. Everything I Wanna Do (3:27)
11. Don't Ever Let It End (3:49)
Исходное издание: Roadrunner Records – RR7709-2
Обработка: Проведены деклиппинг и декомпрессия.
Спектр, АЧХ, Уровень записи, Динамический диапазон
АЧХ до обработки - красного цвета, после обработки - зеленого.
Код:
foobar2000 1.3.9 / Замер динамического диапазона (DR) 1.1.1
Дата отчёта: 2017-07-07 13:31:34
--------------------------------------------------------------------------------
Анализ:   Nickelback / Here and Now
--------------------------------------------------------------------------------
DR         Пики          RMS        Продолжительность трека
--------------------------------------------------------------------------------
DR11      -0.30 дБ   -12.98 дБ      3:21 1-This Means War
DR11      -0.30 дБ   -12.64 дБ      3:37 2-Bottoms Up
DR12      -0.30 дБ   -13.91 дБ      3:11 3-When We Stand Together
DR10      -0.61 дБ   -12.39 дБ      3:15 4-Midnight Queen
DR11      -0.42 дБ   -12.87 дБ      3:42 5-Gotta Get Me Some
DR11      -0.79 дБ   -14.35 дБ      3:48 6-Lullaby
DR12      -0.66 дБ   -13.69 дБ      3:35 7-Kiss It Goodbye
DR11      -0.30 дБ   -13.93 дБ      4:12 8-Trying Not to Love You
DR11      -0.75 дБ   -13.66 дБ      3:52 9-Holding on to Heaven
DR11      -0.74 дБ   -13.50 дБ      3:27 10-Everything I Wanna Do
DR11      -0.37 дБ   -13.70 дБ      3:49 11-Don't Ever Let It End
--------------------------------------------------------------------------------
Количество треков: 11
Реальные значения DR: DR11
Частота:  44100 Гц
Каналов:  2
Разрядность:   16
Битрейт:  910 кбит/с
Кодек:   FLAC
2014 - No Fixed Address
01. Million Miles an Hour (4:11)
02. Edge of a Revolution (4:03)
03. What Are You Waiting for? (3:39)
04. She Keeps Me Up (3:58)
05. Make Me Believe Again (3:34)
06. Satellite (3:58)
07. Get 'Em Up (3:53)
08. The Hammer's Coming Down (4:24)
09. Miss You (4:02)
10. Got Me Runnin' Round [feat. Flo Rida] (4:05)
11. Sister Sin (3:26)
Исходное издание: Republic Records - none
Обработка: Проведены деклиппинг и декомпрессия.
Спектр, АЧХ, Уровень записи, Динамический диапазон
АЧХ до обработки - красного цвета, после обработки - зеленого.
Код:
foobar2000 1.3.9 / Замер динамического диапазона (DR) 1.1.1
Дата отчёта: 2017-07-07 13:37:36
--------------------------------------------------------------------------------
Анализ:   Nickelback / No Fixed Address
--------------------------------------------------------------------------------
DR         Пики          RMS        Продолжительность трека
--------------------------------------------------------------------------------
DR12      -1.01 дБ   -14.61 дБ      4:11 1-Million Miles an Hour
DR10      -0.39 дБ   -12.49 дБ      4:03 2-Edge of a Revolution
DR10      -0.87 дБ   -13.72 дБ      3:39 3-What Are You Waiting for?
DR12      -0.41 дБ   -14.64 дБ      3:58 4-She Keeps Me Up
DR10      -0.78 дБ   -13.50 дБ      3:34 5-Make Me Believe Again
DR11      -0.64 дБ   -14.23 дБ      3:58 6-Satellite
DR11      -0.74 дБ   -14.53 дБ      3:53 7-Get 'Em Up
DR11      -0.92 дБ   -14.94 дБ      4:24 8-The Hammer's Coming Down
DR12      -0.34 дБ   -14.22 дБ      4:02 9-Miss You
DR12      -0.60 дБ   -14.82 дБ      4:05 10-Got Me Runnin' Round [feat. Flo Rida]
DR12      -0.97 дБ   -16.12 дБ      3:26 11-Sister Sin
--------------------------------------------------------------------------------
Количество треков: 11
Реальные значения DR: DR11
Частота:  44100 Гц
Каналов:  2
Разрядность:   16
Битрейт:  919 кбит/с
Кодек:   FLAC
2017 - Feed the Machine
01. Feed the Machine (5:02)
02. Coin for the Ferryman (4:50)
03. Song on Fire (3:51)
04. Must Be Nice (3:43)
05. After the Rain (3:35)
06. For the River (3:29)
07. Home (3:52)
08. The Betrayal (Act III) (4:21)
09. Silent Majority (3:52)
10. Every Time We're Together (3:53)
11. The Betrayal (Act I) (2:42)
Исходное издание: Roadrunner Records - none
Обработка: Проведены деклиппинг, декомпрессия, эквализация.
Спектр, АЧХ, Уровень записи, Динамический диапазон
АЧХ до обработки - красного цвета, после обработки - зеленого.
Код:
foobar2000 1.3.9 / Замер динамического диапазона (DR) 1.1.1
Дата отчёта: 2017-07-07 13:39:08
--------------------------------------------------------------------------------
Анализ:   Nickelback / Feed the Machine
--------------------------------------------------------------------------------
DR         Пики          RMS        Продолжительность трека
--------------------------------------------------------------------------------
DR11      -1.35 дБ   -13.70 дБ      5:02 1-Feed the Machine
DR12      -0.96 дБ   -15.13 дБ      4:50 2-Coin for the Ferryman
DR11      -1.32 дБ   -15.08 дБ      3:51 3-Song on Fire
DR12      -1.26 дБ   -15.37 дБ      3:43 4-Must Be Nice
DR12      -0.77 дБ   -15.05 дБ      3:35 5-After the Rain
DR11      -1.06 дБ   -14.31 дБ      3:29 6-For the River
DR12      -0.99 дБ   -15.35 дБ      3:52 7-Home
DR11      -0.95 дБ   -14.18 дБ      4:21 8-The Betrayal (Act III)
DR11      -1.02 дБ   -14.61 дБ      3:52 9-Silent Majority
DR11      -0.50 дБ   -14.51 дБ      3:53 10-Every Time We're Together
DR11      -3.88 дБ   -18.51 дБ      2:42 11-The Betrayal (Act I)
--------------------------------------------------------------------------------
Количество треков: 11
Реальные значения DR: DR11
Частота:  44100 Гц
Каналов:  2
Разрядность:   16
Битрейт:  924 кбит/с
Кодек:   FLAC
Дополнительная информация
Обработка: Adobe Audition с плагинами Stereo Tool (Perfect Declipper, Azimuth Correction, Phase Rotation, Delossifier, True Bass), Acon Digital Declip, Fabfilter Pro-L, Fabfilter Pro-Q2, Fabfilter Pro-MB, Zynaptiq Unchirp.
Мониторинг результата:
Стационарная аппаратура: NAD D 1050 + Beyerdynamic DT 990 Pro и Rotel RA-10 + Jamo C603
Мобильная аппаратура: Meizu MX2 + Sennheiser CX 980
Примечание: Деклиппинг и восстановление динамического диапазона - не панацея от некачественной записи. Целью реставрации является меньшая усталость при прослушивании, и звучание, приближенное к тому, которое задумывалось звукорежиссером, до вмешательства маркетологов.
Материалы по теме "Война громкости": 1, 2, 3

Другие раздачи в рамках проекта можно найти здесь
07.07.2017: Раздача переделана в потрековую. Добавлен альбом "Feed the Machine".
Download
Для скачивания .torrent файлов необходима регистрация
Сайт не распространяет и не хранит электронные версии произведений, а лишь предоставляет доступ к создаваемому пользователями каталогу ссылок на торрент-файлы, которые содержат только списки хеш-сумм
[Профиль]  [ЛС] 

Maverick67

Стаж: 10 лет 1 месяц

Сообщений: 67


Maverick67 · 07-Май-16 19:33 (спустя 1 день 23 часа)

Лисной Йожыг, как всегда, спасибо за работу! Получилось очень достойно. Звук динамичный и детальный, при этом не утомляет. Да и сам материал понравился, хотя раньше их не слыхал.
[Профиль]  [ЛС] 

Fraz2014

Стаж: 5 лет 1 месяц

Сообщений: 3


Fraz2014 · 09-Июн-16 16:31 (спустя 1 месяц 1 день)

Вы не можете восстановить динамический диапазон , который уже был потерян. Все, что вы сделали, это изменить форму форм волны , чтобы создать иллюзию добавленной динамического диапазона . Но вы не можете добавить динамический диапазон, который уже потерял в результате первоначального сжатия .
[Профиль]  [ЛС] 

Лисной Йожыг

Стаж: 10 лет 9 месяцев

Сообщений: 922

Лисной Йожыг · 09-Июн-16 17:06 (спустя 35 мин., ред. 09-Июн-16 17:06)

Fraz2014, угу, иллюзионист, и живу иллюзиями.
[Профиль]  [ЛС] 

Zud

Стаж: 12 лет 4 месяца

Сообщений: 36


Zud · 24-Июл-16 14:01 (спустя 1 месяц 14 дней)

Редкостное гавно. Новый баржоми.
[Профиль]  [ЛС] 

Гость


Гость · 11-Мар-17 07:52 (спустя 7 месяцев)

Лисной Йожыг писал(а):
70854691Лисной Йожыг
привет. не мог бы ты подробнее обьяснить с картинками что ты сделал в данной раздаче и как это вообще выглядит ?
 

Лисной Йожыг

Стаж: 10 лет 9 месяцев

Сообщений: 922

Лисной Йожыг · 15-Мар-17 12:30 (спустя 4 дня)

f0nbar0n, привет. Писанины будет много, а вопросов после нее будет еще больше. Так что, если есть что-то конкретное - пиши в личку.
[Профиль]  [ЛС] 

Лисной Йожыг

Стаж: 10 лет 9 месяцев

Сообщений: 922

Лисной Йожыг · 07-Июл-17 14:15 (спустя 3 месяца 23 дня)

Обновление.
Раздача переделана в потрековую. Добавлен альбом "Feed the Machine".
[Профиль]  [ЛС] 

sega++

Стаж: 10 лет 5 месяцев

Сообщений: 418

sega++ · 07-Июл-17 19:09 (спустя 4 часа)

Саунд нового альбома хорошо получился. Слушается намного приятнее оригинального мастеринга. Благодарю!
[Профиль]  [ЛС] 

vovver2013

Стаж: 6 лет 6 месяцев

Сообщений: 25


vovver2013 · 09-Июл-17 21:09 (спустя 2 дня 2 часа)

Йожыг, дружище, спасибо за труд.
[Профиль]  [ЛС] 

metal.km1

Стаж: 10 лет 6 месяцев

Сообщений: 11

metal.km1 · 14-Июл-17 13:27 (спустя 4 дня, ред. 18-Июл-17 21:36)

Лисной Йожыг, извините конечно но Вы занимаетесь онанизмом. Сразу слышно что Вы очень смутно понимаете что делаете.
Может Вам и нравиться такой звук но просто смешно думать что Вы могли что то там улучшить использовав несколько бесплатных плагинов в Adobe Audition. И уж тем более обрабатывая уже готовый мастер. Детский сад...
_
Вашы слова - " Целью реставрации является меньшая усталость при прослушивании, и звучание, приближенное к тому, которое задумывалось звукорежиссером, до вмешательства маркетологов." - как Вы можете знать какое звучание задумывалось звукорежисcером? Он что Ваш друг? Вы с ним общались???
_
P.S. Такие нынче времена... купил фотоаппарат уже фотограф, скачал Adobe Audition - уже мастеринг инженер
[Профиль]  [ЛС] 

Лисной Йожыг

Стаж: 10 лет 9 месяцев

Сообщений: 922

Лисной Йожыг · 23-Июл-17 10:56 (спустя 8 дней, ред. 23-Июл-17 14:29)

sega++, vovver2013, пожалуйста Жаль, что из "г" конфетки не получилось, но, хотя бы так...
metal.km1, извиняю.
Цитата:
Сразу слышно что Вы очень смутно понимаете что делаете.
Возможно, спорить не собираюсь. Покажите, как надо правильно "делать звук", а люди послушают.
Цитата:
Может Вам и нравиться такой звук
Нравится, поэтому, и делюсь со слушателями. Сидерам тоже нравится, в противном случае, это какой-то мазохизм получается (а я не склонен верить тому, что раздачи поддерживают из чувства жалости).
Цитата:
просто смешно думать что Вы могли что то там улучшить использовав несколько бесплатных плагинов в Adobe Audition.
Не такие уж они и бесплатные. А ProTools и iZotope я не осилил, к сожалению.
Цитата:
И уж тем более обрабатывая уже готовый мастер.
Приходится работать с тем материалом, к которому есть доступ. Если у вас есть доступ к оригинальным дорожкам - поделитесь ими, соберём правильно сведённый материал на радость слушателям.
Цитата:
Вашы слова - " Целью реставрации является меньшая усталость при прослушивании, и звучание, приближенное к тому, которое задумывалось звукорежиссером, до вмешательства маркетологов." - как Вы можете знать какое звучание задумывалось звукорежисcером? Он что Ваш друг? Вы с ним общались???
Если вас интересует вопрос: есть ли у меня в друзьях люди связанные со сведением и мастерингом, то отвечу - да, есть. Лично знаю двух звукачей в нашем городе, которые вполне успешны на этой ниве, и неоднократно с ними общался на эту тему. В двух словах, могу сказать следующее: "Работа спорная, но, имеет право на существование как безальтернативная на сегодняшний день. Что-то не имело смысла обрабатывать, что-то получается крайне достойно.". Мнение этих людей я уважаю, и прислушиваюсь к ним, тем более, что знаю их не первый год, как крепких профи в своей сфере.
Цитата:
Такие нынче времена... купил фотоаппарат уже фотограф, скачал Adobe Audition - уже мастеринг инженер
Скорее, ремастеринг-инженер. Знаете... говоря вашими же словами, любой кто купил компьютер и скачал музыку с трекера - уже рецензент и критик.
[Профиль]  [ЛС] 

xx2012xx

Стаж: 9 лет 7 месяцев

Сообщений: 30

xx2012xx · 03-Авг-17 19:10 (спустя 11 дней, ред. 03-Авг-17 19:10)

А можете вкратце раскидать в ЛС каким образом проводите обработку, что именно делаете? - хотелось бы поработать со своими любимыми пластинками для себя.
Знаком с базовыми навыками работы в Adobe Audition и понимаю, что такое динамический диапазон.
[Профиль]  [ЛС] 

Лисной Йожыг

Стаж: 10 лет 9 месяцев

Сообщений: 922

Лисной Йожыг · 03-Авг-17 19:12 (спустя 1 мин.)

xx2012xx, без проблем. Сегодня-завтра постараюсь написать.
[Профиль]  [ЛС] 

Fraz2014

Стаж: 5 лет 1 месяц

Сообщений: 3


Fraz2014 · 08-Авг-17 17:58 (спустя 4 дня)

Вы не можете добавить динамический диапазон, где динамический диапазон уже потерян....
[Профиль]  [ЛС] 

baboss

Стаж: 10 лет 7 месяцев

Сообщений: 31


baboss · 04-Окт-17 22:31 (спустя 1 месяц 27 дней)

Пардон, конечно, но вы убили звук напрочь. Взять хотя бы свежий альбом Feed the Machine - появилась грязь, кое где странный хрип, громкость плавает. Без обид, но ориентируясь только на цифры в плагинах и на инструкции сложно достичь действительно хорошего результата. Тут главный инструмент - слух. Мой слух говорит мне о том, что оригинал звучит лучше, при всей моей любви к широкому ДД.
[Профиль]  [ЛС] 

Лисной Йожыг

Стаж: 10 лет 9 месяцев

Сообщений: 922

Лисной Йожыг · 14-Окт-17 15:43 (спустя 9 дней, ред. 14-Окт-17 15:43)

baboss,
Цитата:
но вы убили звук напрочь
Невозможно убить убитое.
Цитата:
Взять хотя бы свежий альбом Feed the Machine - появилась грязь, кое где странный хрип, громкость плавает
Применительно к "Feed the Machine", еще и мертворождённое. Послушайте оригинал: грязь, дисторшн, плавание громкости присутствуют в тех же местах, в том же объеме, просто они слабо заметны в искажениях от перекомпрессии.
И да. Никто не мешает наслаждаться оригинальным звуком
[Профиль]  [ЛС] 

sergi1833

Стаж: 9 лет 3 месяца

Сообщений: 87

sergi1833 · 12-Апр-18 21:13 (спустя 5 месяцев 29 дней, ред. 12-Апр-18 21:13)

metal.km1 писал(а):
73458899Лисной Йожыг
_
P.S. Такие нынче времена... купил фотоаппарат уже фотограф, скачал Adobe Audition - уже мастеринг инженер
...выучил русские буквы - уже филолог ("вашы слова", ну хоть убей, а пишется через "и", по-моему, грамматика 1-й класс, или в Украине другие правила?) P.S. Кстати, а как по-украински будет "брюзга"?
[Профиль]  [ЛС] 

s1ider

Стаж: 9 лет 2 месяца

Сообщений: 5


s1ider · 31-Май-18 09:46 (спустя 1 месяц 18 дней)

а где-то есть дискография во FLAC, но без дополнительной "обработки"?
при всём уважении, хочется слушать оригинальный профессиональный звук, а не любительскую обработку.
[Профиль]  [ЛС] 

narvinskiy

Стаж: 11 лет

Сообщений: 16


narvinskiy · 31-Май-18 23:31 (спустя 13 часов)

Спасибо автору.Был на их концерте 25-го мая в Таллине.Что-то возжелалось ознакомиться поближе с их творчеством.
В живую звучат то они отлично,хорошо работают,вокалист под конец концерта голос сорвал.
[Профиль]  [ЛС] 

Serj06082010

Стаж: 8 лет 10 месяцев

Сообщений: 145

Serj06082010 · 10-Июн-18 17:17 (спустя 9 дней)

"Деклиппинг и восстановление динамического диапазона - не панацея от некачественной записи. Целью реставрации является меньшая усталость при прослушивании, и звучание, приближенное к тому, которое задумывалось звукорежиссером, до вмешательства маркетологов."
мамкин звукоинженер нарисовался ))
[Профиль]  [ЛС] 

dimad1978zxc

Стаж: 5 лет 7 месяцев

Сообщений: 4


dimad1978zxc · 24-Июн-19 13:42 (спустя 1 год)

Это же надо так всё испортить...,убили всё качество лиц.дисков,слушать на стационаре не возможно,да и с телефона тоже...
[Профиль]  [ЛС] 

bracsadance

Стаж: 4 года 1 месяц

Сообщений: 1069

bracsadance · 02-Июл-19 20:11 (спустя 8 дней)

Угар.
Админы в мае 16-го упоролись, что-ли..?
Как можно было поставить статус "проверено"?
[Профиль]  [ЛС] 
 
Ответить
Loading...
Error