[RM] [restored] [declipped] [16/44] (Alternative Rock, Soft Rock) Poets of the Fall - Дискография - 2005-2018, FLAC (tracks+.cue)

Страницы :   Пред.  1, 2

Ответить
Автор
Сообщение

TOBorG

Стаж: 10 лет

Сообщений: 41


TOBorG · 09-Окт-18 17:13 (9 месяцев назад)

Когда новый альбом за 2018й год в раздаче появится?
[Профиль]  [ЛС] 

Лисной Йожыг

Стаж: 10 лет 9 месяцев

Сообщений: 922

Лисной Йожыг · 10-Окт-18 11:55 (спустя 18 часов)

TOBorG, пока что не знаю. Надеюсь, в этом месяце.
[Профиль]  [ЛС] 

Лисной Йожыг

Стаж: 10 лет 9 месяцев

Сообщений: 922

Лисной Йожыг · 30-Окт-18 23:07 (спустя 20 дней)

Обновление:
Раздача переделана и преобразована в потрековую. Добавлен альбом "Ultraviolet".
[Профиль]  [ЛС] 

AlexeyKrause

Стаж: 9 лет 1 месяц

Сообщений: 428

AlexeyKrause · 05-Ноя-18 11:04 (спустя 5 дней)

Цитата:
и звучание, приближенное к тому, которое задумывалось звукорежиссером, до вмешательства маркетологов.
А от куда Вы знаете, как оно задумывалось? То есть Вы берёте на себя всю ответственность за это? Или делаете так, как бы Вам хотелось, чтобы звучало? Так и я могу рипнуть с 64 кбпс качеством и заявить, что именно так и задумывали музыканты, а злые маркетологи в совокупности с звукорежиссёром улучшили качество, не спросив никого (абсурд, но всё же). Довольно странная тенденция. Удивительно, что таким раздачам ставят статус "проверено", хоть и там есть переработки.
В дополнении хотелось бы оригинальную дискографию, без стороннего вмешательства, точные рипы с дисков.
[Профиль]  [ЛС] 

Лисной Йожыг

Стаж: 10 лет 9 месяцев

Сообщений: 922

Лисной Йожыг · 05-Ноя-18 11:21 (спустя 17 мин.)

Цитата:
А от куда Вы знаете, как оно задумывалось?
При проведении некоторых реставрационных работ (например, восстановлении волны срезанной клиппингом), материал приобретает форму, схожу с той, которая была до операции мастеринга (в данном случае, мастеринга для CD), и схожую с той, которая обычно заливается на винил. Обычная математика, не более того.
Цитата:
То есть Вы берёте на себя всю ответственность за это?
Ответственность перед кем? Перед собой беру. Перед вами - нет. Колхоз - вообще, дело добровольное.
Цитата:
Или делаете так, как бы Вам хотелось, чтобы звучало?
Да, я делаю так, как считаю нужным и правильным, руководствуясь здравым смыслом. Если вам что-то не нравится, вы можете пройти мимо, вас никто не заставляет слушать данные обработки. Раздачи подобные этой, ни в коей мере не претендуют на замену оригиналам. Они лишь служат альтернативой им.
Цитата:
Удивительно, что таким раздачам ставят статус "проверено", хоть и там есть переработки.
Ничего удивительного. Вы сейчас изливаете своё неудовольствие в разделе, который специально создан для любительских ремастеров. Ознакомьтесь с его правилами, и закройте для себя эту тему.
Цитата:
В дополнении хотелось бы оригинальную дискографию, без стороннего вмешательства, точные рипы с дисков.
Попробуйте сначала почитать шапку, и потрудитесь пройти по всем ссылкам, прежде чем возмущаться, что ваши хотелки кто-то не удовлетворил.
[Профиль]  [ЛС] 

CATFISH-2

Стаж: 9 лет 10 месяцев

Сообщений: 1936

CATFISH-2 · 30-Ноя-18 17:33 (спустя 25 дней)

Лисной Йожыг
да видать народ уж подзабыл или не знал и забыл
как должны звучать , а не ибашить прилично записаные сидюки
со средним уровнем громкости на (минус)-6дб
Taboo - Ten Hundred Thousand 1986 DR=13
скрытый текст
foobar2000 1.3.10 / Dynamic Range Meter 1.1.1
log date: 2017-02-04 22:17:04
--------------------------------------------------------------------------------
Analyzed: Taboo / Ten hundred thousand
--------------------------------------------------------------------------------
DR Peak RMS Duration Track
--------------------------------------------------------------------------------
DR15 -6.24 dB -23.55 dB 1:54 01-Tabu
DR13 -4.38 dB -18.95 dB 5:00 02-Demand
DR12 -4.21 dB -18.19 dB 4:59 03-Sexy girl
DR14 -5.13 dB -22.02 dB 5:49 04-Moving in the midnight
DR14 -4.76 dB -21.88 dB 3:40 05-Atomic DJ
DR12 -5.73 dB -20.11 dB 4:34 06-Prego (LP version)
DR14 -7.39 dB -22.59 dB 5:18 07-All i have to dream
DR13 -7.10 dB -21.33 dB 5:11 08-Forgotten faces
DR13 -9.04 dB -24.27 dB 1:02 09-Hope
--------------------------------------------------------------------------------
Number of tracks: 9
Official DR value: DR13
Samplerate: 44100 Hz
Channels: 2
Bits per sample: 16
Bitrate: 875 kbps
Codec: FLAC
================================================================================
винил-рип Chris de Burgh - Man On The Line 1984 DR=16(!)
скрытый текст
foobar2000 1.3.10 / Dynamic Range Meter 1.1.1
log date: 2016-09-30 10:41:47
--------------------------------------------------------------------------------
Analyzed: Chris De Burgh / Man On The Line
--------------------------------------------------------------------------------
DR Peak RMS Duration Track
--------------------------------------------------------------------------------
DR17 0.00 dB -18.77 dB 4:00 01-The Ecstasy Of Flight (I Love The Night)
DR14 -3.13 dB -21.54 dB 3:16 02-Sight And Touch
DR17 -0.60 dB -19.39 dB 3:57 03-Taking It To The Top
DR15 -4.94 dB -26.11 dB 4:01 04-The Head And The Heart
DR16 -0.23 dB -19.40 dB 4:26 05-The Sound Of A Gun
DR18 -0.05 dB -19.80 dB 4:28 06-High On Emotion
DR16 -3.30 dB -23.36 dB 2:56 07-Much More Than This
DR18 0.00 dB -20.65 dB 4:31 08-Man On The Line
DR18 -4.21 dB -25.73 dB 3:35 09-Moonlight And Vodka
DR17 -3.49 dB -25.89 dB 5:57 10-Transmission Ends
--------------------------------------------------------------------------------
Number of tracks: 10
Official DR value: DR16
Samplerate: 96000 Hz
Channels: 2
Bits per sample: 24
Bitrate: 3242 kbps
Codec: FLAC
================================================================================
++++++++++++++++++++++++++++++++++
ДАЁЩЪ альтернативные раздачи с DR<5 для альтернативных ушей и "альтернативной " аппаратуры звуковоспроизведения
[Профиль]  [ЛС] 

crossovernickk

Стаж: 8 лет 9 месяцев

Сообщений: 3087

crossovernickk · 21-Дек-18 22:16 (спустя 21 день)

CATFISH-2
Вы встречали когда-нибудь треки со значением DR20 ?)
https://rutracker.org/forum/viewtopic.php?t=5292050
https://rutracker.org/forum/viewtopic.php?t=5291827
[Профиль]  [ЛС] 

CATFISH-2

Стаж: 9 лет 10 месяцев

Сообщений: 1936

CATFISH-2 · 26-Дек-18 11:19 (спустя 4 дня)

crossovernickk
на классике какой-то ,сам не мерЯл
STEPPENWOLF (уже не слушаю), мерили "линейкой" и ушами
Первые сомнения появились с покупкой сд-пиратки TEARS FOR FEARS : Everybody Loves A Happy Ending(2004),
ГРОМКО уж чо-та, а чем мерить -проверить тогда было не совсем понятно.
Индикаторы записи касс.деки ,настроеные по тестовому диску в 0дб - взлетали до +8б
индикаторы перегруза на эквалайзере настр. на +3 в пиках = активно светились
СТРАШНО представить сд-плеер с индикатором уровня
===================================================
тут либо винил-рип, либо многоуважаемый мною релизёр, либо самому мусолить понравившийся музон хотя бы
до DR=>9 , это если при DR=<5
[Профиль]  [ЛС] 

Shnapsis

Стаж: 10 лет 2 месяца

Сообщений: 53

Shnapsis · 14-Фев-19 10:06 (спустя 1 месяц 18 дней)

Когда слушаю песню Late Goodbye,всегда ностальгия по Max Pain.Хотя давно забросил игры...
[Профиль]  [ЛС] 

dreamer_2002

Стаж: 10 лет 8 месяцев

Сообщений: 1263

dreamer_2002 · 16-Фев-19 03:17 (спустя 1 день 17 часов)

Shnapsis
Аналогично. Сильная игрушка была для того времени, и мрачная.
[Профиль]  [ЛС] 
 
Ответить
Loading...
Error