[RM] [restored] [declipped] [24/96] (Industrial) Lindemann - Дискография - 2015-2018, FLAC (tracks), lossless

Страницы:  1

Ответить
Автор
Сообщение

freeman40111

Стаж: 7 лет 4 месяца

Сообщений: 43

freeman40111 · 30-Янв-19 00:29 (5 месяцев 20 дней назад, ред. 30-Янв-19 00:32)

Lindemann / Дискография
Жанр: Industrial
Год издания: 2015-2018
Страна исполнителя (группы): Germany, Sweden
Аудиокодек: FLAC (*.flac)
Тип рипа: tracks
Битрейт аудио: lossless
Формат раздачи: 24/96
Обработка: Устранение клиппинга, восстановление динамического диапазона, интерполирование, спектрализация.
2015 - Skills In Pills [45:05]
Треклист:
01. Skills In Pills
02. Ladyboy
03. Fat
04. Fish On
05. Children Of The Sun
06. Home Sweet Home
07. Cowboy
08. Golden Shower
09. Yukon
10. Praise Abort
11. That's My Heart
Динамический диапазон - DR11
Код:
foobar2000 1.3.15 / Замер динамического диапазона (DR) 1.1.1
Дата отчёта:  2019-01-29 23:25:47
--------------------------------------------------------------------------------
Анализ:   Lindemann / Skills In Pills
--------------------------------------------------------------------------------
DR         Пики         RMS           Продолжительность трека
--------------------------------------------------------------------------------
DR10      -0.10 дБ   -12.63 дБ      4:14 01-Skills In Pills
DR11      -0.10 дБ   -12.46 дБ      3:21 02-Ladyboy
DR11      -0.10 дБ   -13.35 дБ      4:12 03-Fat
DR11      -0.10 дБ   -12.16 дБ      4:12 04-Fish On
DR11      -0.10 дБ   -12.08 дБ      3:41 05-Children Of The Sun
DR10      -0.10 дБ   -13.71 дБ      3:45 06-Home Sweet Home
DR11      -0.10 дБ   -11.65 дБ      3:11 07-Cowboy
DR11      -0.10 дБ   -12.99 дБ      4:24 08-Golden Shower
DR11      -0.10 дБ   -13.22 дБ      4:45 09-Yukon
DR11      -0.10 дБ   -13.08 дБ      4:45 10-Praise Abort
DR12      -0.10 дБ   -15.54 дБ      4:36 11-That's My Heart
--------------------------------------------------------------------------------
Количество треков: 11
Реальные значения DR: DR11
Частота:   96000 Гц
Каналов:   2
Разрядность:   24
Битрейт:   2711 кбит/с
Кодек:   FLAC
================================================================================
АЧХ, спектр
Источник
2015 - Fish On (Single) [11:30]
Треклист:
01. Fish On
02. G-Spot Michael
03. Praise Abort (Drago Baotic Smooth Version)
Динамический диапазон - DR11
Код:
foobar2000 1.3.15 / Замер динамического диапазона (DR) 1.1.1
Дата отчёта:  2019-01-29 22:26:41
--------------------------------------------------------------------------------
Анализ:   Lindemann / Fish On
--------------------------------------------------------------------------------
DR         Пики         RMS           Продолжительность трека
--------------------------------------------------------------------------------
DR10      -0.10 дБ   -11.20 дБ      4:11 01-Fish On
DR10      -0.10 дБ   -11.07 дБ      3:38 02-G-Spot Michael
DR13      -0.10 дБ   -15.02 дБ      3:42 03-Praise Abort (Drago Baotic Smooth Version)
--------------------------------------------------------------------------------
Количество треков: 3
Реальные значения DR: DR11
Частота:   96000 Гц
Каналов:   2
Разрядность:   24
Битрейт:   2962 кбит/с
Кодек:   FLAC
================================================================================
АЧХ, спектр
Источник
2018 - Mathematik (Single) [14:23]
Треклист:
01. Mathematik (A19)
02. Mathematik Sture Mix
03. Mathematik (Remix A4)
04. Mathematik (Benson Remix)
Динамический диапазон - DR9
Код:
foobar2000 1.3.15 / Замер динамического диапазона (DR) 1.1.1
Дата отчёта:  2019-01-29 22:30:24
--------------------------------------------------------------------------------
Анализ:   Lindemann / Mathematik
--------------------------------------------------------------------------------
DR         Пики         RMS           Продолжительность трека
--------------------------------------------------------------------------------
DR8       -0.15 дБ   -10.46 дБ      3:36 01-Mathematik (A19)
DR9       -0.15 дБ   -10.33 дБ      3:36 02-Mathematik Sture Mix
DR9       -0.15 дБ   -12.32 дБ      3:36 03-Mathematik (Remix A4)
DR10      -0.15 дБ   -14.01 дБ      3:36 04-Mathematik (Benson Remix)
--------------------------------------------------------------------------------
Количество треков: 4
Реальные значения DR: DR9
Частота:   96000 Гц
Каналов:   2
Разрядность:   24
Битрейт:   2605 кбит/с
Кодек:   FLAC
================================================================================
АЧХ, спектр
Источник
Бонусы
Till Lindemann, Richard Kruspe - Schtiel [05:10]
Треклист:
01. Schtiel
Динамический диапазон - DR9
Код:
foobar2000 1.3.15 / Замер динамического диапазона (DR) 1.1.1
Дата отчёта:  2019-01-29 22:28:47
--------------------------------------------------------------------------------
Статистика для:  01-Schtiel
Количество сэмплов: 29834240
Продолжительность: 5:11
--------------------------------------------------------------------------------
           Левый             Правый
Пики:               -0.10 дБ     ---     -0.10 дБ
Средний RMS:             -11.11 дБ     ---    -10.85 дБ
DR канала:               8.85 дБ     ---      8.56 дБ
--------------------------------------------------------------------------------
Реальные значения DR: DR9
Частота:   96000 Гц
Каналов:   2
Разрядность:   24
Битрейт:   2968 кбит/с
Кодек:   FLAC
================================================================================
АЧХ, спектр
Источник
Lindemann - Allesfresser (Phaeton Cover Mix) [16/44]:
Голос из слитого в сеть трека наложен на инструментальный кавер от Phaeton. Получилось даже вполне слушабельно.
Download
Для скачивания .torrent файлов необходима регистрация
Сайт не распространяет и не хранит электронные версии произведений, а лишь предоставляет доступ к создаваемому пользователями каталогу ссылок на торрент-файлы, которые содержат только списки хеш-сумм
[Профиль]  [ЛС] 

kasatkal

Moderator

Стаж: 11 лет

Сообщений: 14170

kasatkal · 30-Янв-19 09:00 (спустя 8 часов)

# сомнительно:
5.2 апконвертам 16 > 24 бит и 44.1 > 48 кГц и выше...
[Профиль]  [ЛС] 

t1gr1s

Стаж: 4 года 9 месяцев

Сообщений: 31

t1gr1s · 31-Янв-19 17:16 (спустя 1 день 8 часов, ред. 31-Янв-19 17:16)

Буду оставаться на раздачи сколько возможно. Однако соглашусь с модератором, что апконверт это излишество.
UPD: сделал конверт к 16/44100 сэкономил 1gb памяти. В Yukon, странный "писк" после 2-ой минуты, аж бесит.
[Профиль]  [ЛС] 

hitman60

Стаж: 12 лет 9 месяцев

Сообщений: 67


hitman60 · 12-Фев-19 16:08 (спустя 11 дней, ред. 12-Фев-19 16:08)

Руки дошли послушать наконец, за труды спасибо, но по звуку на моей системе это такой же ужас, как и что слушал от Йожига, это последний альбом WT, тут к явному перебору со звуковым давлением, добавлен еще и вывернутый на изнанку баланс сцены, в итоге ни с наушников, ни с колонок это слушать невозможно, без обид, но пришлось удалить, и скачать источник, который звучит вот прямо как доктор прописал.
[Профиль]  [ЛС] 

porshe_n

Стаж: 7 лет 1 месяц

Сообщений: 1


porshe_n · 24-Мар-19 21:49 (спустя 1 месяц 12 дней)

hitman60 писал(а):
76852761....и скачать источник, который звучит вот прямо как доктор прописал.
хитмэн дай ссыль плиссс
[Профиль]  [ЛС] 
 
Ответить
Loading...
Error