(Progressive Rock) [CD] Pink Floyd - Architects Of Sound: A History Instrumental Of Pink Floyd - 2009 (10CD), FLAC (tracks), lossless

Страницы:  1

Ответить
Автор
Сообщение

pirs18

Top Seed 05* 640r

Стаж: 9 лет 5 месяцев

Сообщений: 4435

pirs18 · 25-Мар-19 18:30 (3 месяца 24 дня назад, ред. 25-Мар-19 18:36)

Pink Floyd / Architects Of Sound: A History Instrumental Of Pink Floyd
Жанр: Progressive Rock
Носитель: CD
Год издания: 2009
Издатель (лейбл): niebla de fuego
Аудиокодек: FLAC (*.flac)
Тип рипа: tracks
Битрейт аудио: lossless
Продолжительность: 09:53:51
Источник: slava
Наличие сканов в содержимом раздачи: да
CD01 The early instrumentals 01:04:55
1. Experiment
2. Lets Roll Another One
3. Reaction in G
4. Interstellar Overdrive
5. A Saucerful of Secrets
6. Careful With That Axe, Eugene
Лог проверки качества
-----------------------
DON'T MODIFY THIS FILE
-----------------------
PERFORMER: auCDtect Task Manager, ver. 1.5.1RC4 build 1.5.1.5
Copyright (c) 2008-2010 y-soft. All rights reserved
http://y-soft.org
ANALYZER: auCDtect: CD records authenticity detector, version 0.8.2
Copyright (c) 2004 Oleg Berngardt. All rights reserved.
Copyright (c) 2004 Alexander Djourik. All rights reserved.
FILE: 2. Lets Roll Another One.flac
Size: 12656500 Hash: E33292843725B1E7DB6715F97449A167 Accuracy: -m0
Conclusion: CDDA 100%
Signature: E033A144B53A2D85DAE3D0AE0089FEE6AE6F5E82
FILE: 5. A Saucerful Of Secrets.flac
Size: 125445096 Hash: B9EFF6FD729B983685C2DD9C38ED58C8 Accuracy: -m0
Conclusion: CDDA 100%
Signature: 449DD677CEFB3F7F6D414F0AD9B1D81EEEF11F96
FILE: 4. Interstellar Overdrive.flac
Size: 86222784 Hash: 61CF27029C7A7A74A514CFAF02671C10 Accuracy: -m0
Conclusion: CDDA 100%
Signature: 2C3349468F32E3E9CE29EFEEA00AEC27515C5DE5
FILE: 6. Careful With That Axe, Eugene.flac
Size: 82996565 Hash: E18DED86C021FE64598E8CFA335701E0 Accuracy: -m0
Conclusion: CDDA 100%
Signature: 4D1333F2380B0F067E4032E9BBC5AA51DEC6EB82
FILE: 3. Reaction In G.flac
Size: 18451142 Hash: 64C10EB23908FBC62FDA90364B939B84 Accuracy: -m0
Conclusion: CDDA 100%
Signature: 0EC340F76CBA4D2DCDCAA8E5DD96A9701D28A51F
FILE: 1. Experiment.flac
Size: 7189552 Hash: 0E5F508022995DDE8D3770D43948D90A Accuracy: -m0
Conclusion: MPEG 97%
Signature: 817F53A82658787A13CB9BA6982EBE4CF00230B2
DR Log
foobar2000 1.1.10 / Dynamic Range Meter 1.1.1
log date: 2019-03-25 15:38:11
--------------------------------------------------------------------------------
Analyzed: Pink Floyd / Architects Of Sound [Disc 01]
--------------------------------------------------------------------------------
DR Peak RMS Duration Track
--------------------------------------------------------------------------------
DR9 -3.46 dB -14.52 dB 1:29 ?-Experiment
DR9 -3.01 dB -14.57 dB 3:08 ?-Lets Roll Another One
DR8 -3.01 dB -12.91 dB 4:17 ?-Reaction In G
DR11 -3.99 dB -19.03 dB 19:01 ?-Interstellar Overdrive
DR9 -3.01 dB -16.67 dB 23:28 ?-A Saucerful Of Secrets
DR10 -3.93 dB -17.93 dB 13:33 ?-Careful With That Axe, Eugene
--------------------------------------------------------------------------------
Number of tracks: 6
Official DR value: DR9
Samplerate: 44100 Hz
Channels: 2
Bits per sample: 16
Bitrate: 815 kbps
Codec: FLAC
================================================================================
CD02 Instrumental themes from "The Man and The Journey" + "Moonhead" 00:54:56
01. Work
02. Teatime
03. Doing it!
04. Sleep
05. Daybreak - part 2
06. Beset by the Creatures of the Deep
07. The Pink Jungle
08. The Labyrinths Of Auximenes
09. Behold The Temple Of Light
10. The End of the Beginning
11. Moonhead
Лог проверки качества
-----------------------
DON'T MODIFY THIS FILE
-----------------------
PERFORMER: auCDtect Task Manager, ver. 1.5.1RC4 build 1.5.1.5
Copyright (c) 2008-2010 y-soft. All rights reserved
http://y-soft.org
ANALYZER: auCDtect: CD records authenticity detector, version 0.8.2
Copyright (c) 2004 Oleg Berngardt. All rights reserved.
Copyright (c) 2004 Alexander Djourik. All rights reserved.
FILE: 01. Work.flac
Size: 25564093 Hash: 1F6AFAFFDE4792520B070408EADF4FE5 Accuracy: -m0
Conclusion: CDDA 99%
Signature: 74107C0731042DC0E5B307C8EFEAD07659CCF2EA
FILE: 02. Teatime.flac
Size: 20099709 Hash: 01B821FDEBB654DF696EA06A8C6BCEFB Accuracy: -m0
Conclusion: CDDA 100%
Signature: ED78D12517C18F049B9F2EE80077578E53209722
FILE: 03. Doing It!.flac
Size: 26188076 Hash: 654CB26B5F64C6588E785AC69D755209 Accuracy: -m0
Conclusion: CDDA 100%
Signature: 611F45580F31ABD31B21722824775FED318CC1AB
FILE: 04. Sleep.flac
Size: 23547151 Hash: 742878F24CDF8C9DA4EC9C1A102AAD8E Accuracy: -m0
Conclusion: CDDA 100%
Signature: 477628944BD0BF68D24F0A8180790053C47FAFBD
FILE: 05. Daybreak.flac
Size: 6700971 Hash: 36E31773BD1DB87410B382FD983AA374 Accuracy: -m0
Conclusion: CDDA 100%
Signature: B2BE16E4ADB5C12E28F4C74090E39210175DEDF8
FILE: 06. Beset By The Creatures Of The Deep.flac
Size: 43786377 Hash: 7D6D72A80313970752E16698BB15EA7E Accuracy: -m0
Conclusion: CDDA 100%
Signature: 03360914FDD982A82BD39738DB3A2ED22E9DE8CF
FILE: 07. The Pink Jungle.flac
Size: 27154984 Hash: E245FF4239B5D1C7D1EF4D0704C9C569 Accuracy: -m0
Conclusion: CDDA 100%
Signature: D524190FADDDED6C71C349B35DF6661085047B7D
FILE: 08. The Labyrinths Of Auximenes.flac
Size: 33339512 Hash: B599403ABBD6DD76CC2DC63D194196B0 Accuracy: -m0
Conclusion: CDDA 100%
Signature: B5CC1799DC91C55E33340F3EB360990867B34A88
FILE: 09. Behold The Temple Of Light.flac
Size: 29715410 Hash: 4690B1090E4DF112D585F49C5D7A427C Accuracy: -m0
Conclusion: CDDA 100%
Signature: C7BD55478B34C9B7A1B27DF87BBAFA7E6FDA4F34
FILE: 10. The End Of The Beginning.flac
Size: 43049735 Hash: 3F7289057074490670020D9D6C84122A Accuracy: -m0
Conclusion: CDDA 100%
Signature: 024417D45E70581E647AD76210ABBC7D66D251B9
FILE: 11. Moonhead.flac
Size: 32264248 Hash: 9A140A73E9B1F30761F351510D0CD917 Accuracy: -m0
Conclusion: CDDA 99%
Signature: 9C672A6BA6E527A3601164D0C45081B5D0D06B10
DR Log
foobar2000 1.1.10 / Dynamic Range Meter 1.1.1
log date: 2019-03-25 15:45:52
--------------------------------------------------------------------------------
Analyzed: Pink Floyd / Architects Of Sound [Disc 02]
--------------------------------------------------------------------------------
DR Peak RMS Duration Track
--------------------------------------------------------------------------------
DR14 -3.11 dB -20.19 dB 3:53 ?-Work
DR18 -3.11 dB -29.13 dB 3:29 ?-Teatime
DR12 -3.11 dB -17.91 dB 4:02 ?-Doing It!
DR13 -3.11 dB -23.49 dB 4:32 ?-Sleep
DR13 -3.11 dB -22.28 dB 1:05 ?-Daybreak
DR10 -3.11 dB -17.07 dB 6:22 ?-Beset By The Creatures Of The Deep
DR9 -3.11 dB -15.77 dB 4:46 ?-The Pink Jungle
DR12 -3.11 dB -21.10 dB 6:39 ?-The Labyrinths Of Auximenes
DR14 -3.11 dB -22.18 dB 5:31 ?-Behold The Temple Of Light
DR8 -3.11 dB -15.19 dB 6:43 ?-The End Of The Beginning
DR9 -3.01 dB -17.46 dB 7:54 ?-Moonhead
--------------------------------------------------------------------------------
Number of tracks: 11
Official DR value: DR12
Samplerate: 44100 Hz
Channels: 2
Bits per sample: 16
Bitrate: 539 kbps
Codec: FLAC
================================================================================
CD03 Themes from "More" and "Ummagumma (Studio Album)" 00:55:23
01. Up the Khyber
02. Party Sequence
03. Main Theme
04. More Blues
05. Quicksilver
06. A Spanish Piece (music only)
07. Dramatic Theme
08. Hollywood
09. Sysyphus part 1
10. Sysyphus part 2
11. Sysyphus part 3
12. Sysyphus part 4
13. Several Species
14. The Narrow Way part 1
15. The Narrow Way part 2
16. The Grand Vizier's Garden party Part 1 - entrance
17. The Grand Vizier's Garden party Part 2 - entertainment
18. The Grand Vizier's Garden Party part 3 - exit
Лог проверки качества
-----------------------
DON'T MODIFY THIS FILE
-----------------------
PERFORMER: auCDtect Task Manager, ver. 1.5.1RC4 build 1.5.1.5
Copyright (c) 2008-2010 y-soft. All rights reserved
http://y-soft.org
ANALYZER: auCDtect: CD records authenticity detector, version 0.8.2
Copyright (c) 2004 Oleg Berngardt. All rights reserved.
Copyright (c) 2004 Alexander Djourik. All rights reserved.
FILE: 01. Up The Khyber.flac
Size: 12350395 Hash: 8D13B03D237D431E463533C170260968 Accuracy: -m0
Conclusion: CDDA 100%
Signature: 4A12C6BF533EF083ECB23CAEB3BA4EA485E9FFBF
FILE: 02. Party Sequence.flac
Size: 4815116 Hash: 7E2A861958A00DEBD5C3F9673AAFB532 Accuracy: -m0
Conclusion: CDDA 100%
Signature: 994AA61E6A9949DED86C2D44E47D6D28C223F12F
FILE: 03. Main Theme.flac
Size: 26926478 Hash: F66F49D5F159FD6BC486FD26A9E655F2 Accuracy: -m0
Conclusion: CDDA 100%
Signature: A665DC4173DEC80BA01A6769CB9F525AE54DBBAD
FILE: 04. More Blues.flac
Size: 10159668 Hash: 816A0905687B2D3ECE08EC375A0D55FA Accuracy: -m0
Conclusion: CDDA 100%
Signature: B50E5F96FCF0A52CCB74377533AF944C590F8561
FILE: 05. Quicksilver.flac
Size: 35607741 Hash: 1C53E9B0C5A0D180B5734BB9B4AF06EE Accuracy: -m0
Conclusion: CDDA 100%
Signature: 7B4CA91AEA0D4C74A2C02099F33A2A835472FFF6
FILE: 06. A Spanish Piece (Music Only).flac
Size: 2984604 Hash: F62FA0D6238B0FE45E715A7DF43C7FD1 Accuracy: -m0
Conclusion: CDDA 100%
Signature: E904CC88B8F31599BFEC10382CC200A4DAB42162
FILE: 07. Dramatic Theme.flac
Size: 12669105 Hash: C4983185FBA1F6CA1BF535666EB27E63 Accuracy: -m0
Conclusion: CDDA 100%
Signature: 7033C9BF60054FB3076AFFA339C0883E6C234233
FILE: 08. Hollywood.flac
Size: 4073395 Hash: 745B286BC8F72D5EBA887167E274D8E7 Accuracy: -m0
Conclusion: MPEG 89%
Signature: 8FA88C6F397CD3D23A979EFCBE93D9485759E78B
FILE: 09. Sysyphus Part 1.flac
Size: 6562069 Hash: ECF00BDD5C28AC783BACFADF94993014 Accuracy: -m0
Conclusion: CDDA 100%
Signature: 0F68894443278AD39FEC18A05C637DDEE557B656
FILE: 10. Sysyphus Part 2.flac
Size: 16154509 Hash: 964E89646D8C7EEACAD341743C26C7D3 Accuracy: -m0
Conclusion: CDDA 100%
Signature: E33438BDD1F000274357E804EE0D4BC6B48424FF
FILE: 11. Sysyphus Part 3.flac
Size: 10780062 Hash: 10917FD8148D411DADDB8F845DC1575B Accuracy: -m0
Conclusion: CDDA 100%
Signature: 181080A8CFEA1927FEE42D8369EA5DF067507604
FILE: 12. Sysyphus Part 4.flac
Size: 33844707 Hash: 3C1C156BD6BECC24833133A47C90022D Accuracy: -m0
Conclusion: CDDA 100%
Signature: A68EF36B51D740D31D0811EEF1986568EA8782CE
FILE: 13 . Several Species.flac
Size: 27261530 Hash: 26F70E7AE1307CD1140033CE63D113BD Accuracy: -m0
Conclusion: CDDA 100%
Signature: 3ECC687A52E8F3BC8F079D30A739C7304F96FBE7
FILE: 14. The Narrow Way Part 1.flac
Size: 20228449 Hash: BD538FF087E275EEC7D8C9BDB81AF86C Accuracy: -m0
Conclusion: CDDA 100%
Signature: 78E5AF19C1EE1BED9881EDA5A7E7030540EF8C99
FILE: 15. The Narrow Way Part 2.flac
Size: 16689329 Hash: 733698E19580C35056E19D9A3EEC3D76 Accuracy: -m0
Conclusion: CDDA 100%
Signature: E0F8012DF2C17562A3648432C5242E7CFC2E10A3
FILE: 16. The Grand Vizier's Garden Party Part 1 - Entrance.flac
Size: 5354211 Hash: 6DEA9CD0C116E6CA561F2D73818D3316 Accuracy: -m0
Conclusion: CDDA 100%
Signature: 53F9526531FDFC3A77B77AC32D003835D0E50FF0
FILE: 17. The Grand Vizier's Garden Party Part 2 - Entertainment.flac
Size: 35091348 Hash: D9C695FEB1F9C9D23C06E196E7026909 Accuracy: -m0
Conclusion: CDDA 100%
Signature: 3A59931419B529D789788ED8E84988BFA40F7D51
FILE: 18. The Grand Vizier's Garden Party Part 3 - Exit.flac
Size: 3417055 Hash: C648493EEEB514E1AD1246F86313C4CA Accuracy: -m0
Conclusion: CDDA 99%
Signature: FD5DC5AAEC52C5E78BF7AD7055825445071BF4BE
DR Log
foobar2000 1.1.10 / Dynamic Range Meter 1.1.1
log date: 2019-03-25 15:50:52
--------------------------------------------------------------------------------
Analyzed: Pink Floyd / Architects Of Sound [Disc 03]
--------------------------------------------------------------------------------
DR Peak RMS Duration Track
--------------------------------------------------------------------------------
DR10 -3.01 dB -16.61 dB 2:08 ?-Up The Khyber
DR14 -5.61 dB -23.15 dB 1:04 ?-Party Sequence
DR11 -3.01 dB -18.26 dB 5:14 ?-Main Theme
DR12 -3.25 dB -24.22 dB 2:12 ?-More Blues
DR13 -3.01 dB -21.60 dB 7:11 ?-Quicksilver 44
DR10 -3.25 dB -19.28 dB 1:02 ?-A Spanish Piece (Music Only)
DR12 -3.01 dB -20.08 dB 2:15 ?-Dramatic Theme
DR14 -6.02 dB -21.20 dB 0:47 ?-Hollywood 44
DR8 -3.91 dB -13.90 dB 1:10 ?-Sysyphus Part 1
DR9 -6.67 dB -18.96 dB 3:28 ?-Sysyphus Part 2
DR9 -6.01 dB -20.14 dB 1:52 ?-Sysyphus Part 3
DR9 -4.22 dB -18.77 dB 6:58 ?-Sysyphus Part 4
DR13 -4.23 dB -22.53 dB 5:00 ?-Several Species
DR11 -4.94 dB -19.95 dB 3:29 ?-The Narrow Way Part 1
DR8 -3.05 dB -13.91 dB 2:53 ?-The Narrow Way Part 2
DR10 -4.56 dB -19.28 dB 0:59 ?-The Grand Vizier's Garden Party Part 1 - Entrance
DR11 -3.01 dB -19.03 dB 7:07 ?-The Grand Vizier's Garden Party Part 2 - Entertainment
DR7 -8.21 dB -21.38 dB 0:39 ?-The Grand Vizier's Garden Party Part 3 - Exit
--------------------------------------------------------------------------------
Number of tracks: 18
Official DR value: DR11
Samplerate: 44100 Hz
Channels: 2
Bits per sample: 16
Bitrate: 648 kbps
Codec: FLAC
================================================================================
CD04 Instrumentals from "Zabriskie Point" 01:03:17
01. Heart Beat Pig Meat (Beginning Scene)
02. Violence Sequence
03. Fingal's Cave (Take off - version 1)
04. The Flying Sequence (Take off - version 2)
05. Unknown song (full mix)
06. Country Song intro - harpsicord
07. Love Scene 1
08. Love Scene 2
09. Love Scene 3 (Oenone)
10. Love Scene 4 (full mix)
11. Love Scene 5
12. Love Scene 6 (full mix)
Лог проверки качества
-----------------------
DON'T MODIFY THIS FILE
-----------------------
PERFORMER: auCDtect Task Manager, ver. 1.5.1RC4 build 1.5.1.5
Copyright (c) 2008-2010 y-soft. All rights reserved
http://y-soft.org
ANALYZER: auCDtect: CD records authenticity detector, version 0.8.2
Copyright (c) 2004 Oleg Berngardt. All rights reserved.
Copyright (c) 2004 Alexander Djourik. All rights reserved.
FILE: 04. The Flying Sequence (Take Off - Version 2).flac
Size: 8583358 Hash: 0C4CDDA10B5C3AF3E303E9585BE30718 Accuracy: -m0
Conclusion: CDDA 100%
Signature: 2DE2EB0E095B193B544E7A700127A82E86ACEDA0
FILE: 07. Love Scene 1.flac
Size: 33463152 Hash: 0C31959E14B0A2EC9A4E47F1347D2BA9 Accuracy: -m0
Conclusion: CDDA 100%
Signature: A05D846DB8873C60A181B41610FDDC6E0ABF9977
FILE: 02. Violence Sequence.flac
Size: 21782331 Hash: FD969ACE27BF3B2E3B3F05A3B710E7DA Accuracy: -m0
Conclusion: CDDA 42%
Signature: F9618DF3ED6DAE898C545BFA26D51125167C2A90
FILE: 08 . Love Scene 2.flac
Size: 33346529 Hash: 3F8779A1D2F5193FDC3E54E20C83FF22 Accuracy: -m0
Conclusion: CDDA 100%
Signature: 2540C7DC3946DFEEDB82ECADEC8859595E6B7414
FILE: 11. Love Scene 5.flac
Size: 32796982 Hash: 0A740048BBE728C71D906E70D33C321C Accuracy: -m0
Conclusion: CDDA 87%
Signature: AE0AFA906293DFB1C796A78EEBFA7E2390FD7A5C
FILE: 10. Love Scene 4 (Full Mix).flac
Size: 27986079 Hash: 8D8A900C311123F8ADFF725BD19A6ED1 Accuracy: -m0
Conclusion: CDDA 100%
Signature: C23A5FCBD109BF7949CAF79AC93B74C31CA557D2
FILE: 01. Heart Beat Pig Meat (Beginning Scene).flac
Size: 16985154 Hash: A6307AB6D313585044933681C28E4940 Accuracy: -m0
Conclusion: CDDA 100%
Signature: 17B3D354ED1BEDEB1D529B1564E50C9D069B944D
FILE: 03. Fingal's Cave (Take Off - Version 1).flac
Size: 11807264 Hash: F79B08DA666169730E8F77C14EF11D6F Accuracy: -m0
Conclusion: CDDA 100%
Signature: 6AB71586A7C11049830DC767EADFA4B2B6C19400
FILE: 12. Love Scene 6 (Full Mix).flac
Size: 44497735 Hash: FE09E105F170EBF6A07E63C79254FDA7 Accuracy: -m0
Conclusion: CDDA 99%
Signature: 2DF739B3CF9E96D945D36F42F6C4A478E20F3003
FILE: 09. Love Scene 3 (Oenone).flac
Size: 37030193 Hash: BEFFAB9B66BD070BC14675D8FF124565 Accuracy: -m0
Conclusion: CDDA 100%
Signature: B458D90BDA1638DE0C4F26724A586033BBE38010
FILE: 06. Country Song Intro - Harpsicord.flac
Size: 8703122 Hash: A78FC20C2265A04C393D2529D34EF4B1 Accuracy: -m0
Conclusion: CDDA 100%
Signature: 65F8DB178D811C32F3BFDD7F1D8E7D65787FAB8E
FILE: 05. Unknown Song (Full Mix).flac
Size: 41857830 Hash: 5ABD3CD2E6D21F6D3180A3F3ADFAF555 Accuracy: -m0
Conclusion: CDDA 99%
Signature: 99119EF4D30908324F8AB7AEAC021BEBBDF7D980
DR Log
foobar2000 1.1.10 / Dynamic Range Meter 1.1.1
log date: 2019-03-25 15:54:22
--------------------------------------------------------------------------------
Analyzed: Pink Floyd / Architects Of Sound [Disc 04]
--------------------------------------------------------------------------------
DR Peak RMS Duration Track
--------------------------------------------------------------------------------
DR11 -3.14 dB -15.86 dB 3:11 ?-Heart Beat Pig Meat (Beginning Scene)
DR13 -0.08 dB -19.04 dB 6:24 ?-Violence Sequence
DR11 -0.63 dB -12.77 dB 1:51 ?-Fingal's Cave (Take Off - Version 1)
DR8 -0.31 dB -10.75 dB 1:14 ?-The Flying Sequence (Take Off - Version 2)
DR11 -0.28 dB -13.69 dB 6:57 ?-Unknown Song (Full Mix)
DR11 -0.09 dB -15.91 dB 1:20 ?-Country Song Intro - Harpsicord
DR9 -0.18 dB -12.86 dB 6:34 ?-Love Scene 1
DR11 0.00 dB -16.46 dB 6:54 ?-Love Scene 2
DR11 -0.12 dB -15.36 dB 7:53 ?-Love Scene 3 (Oenone)
DR13 -0.13 dB -19.95 dB 6:50 ?-Love Scene 4 (Full Mix)
DR11 -0.44 dB -17.83 dB 6:43 ?-Love Scene 5
DR9 -2.65 dB -14.89 dB 7:25 ?-Love Scene 6 (Full Mix)
--------------------------------------------------------------------------------
Number of tracks: 12
Official DR value: DR11
Samplerate: 44100 Hz
Channels: 2
Bits per sample: 16
Bitrate: 795 kbps
Codec: FLAC
================================================================================
CD05 Themes from "Atom Heart Mother" + Corrosion 01:06:11
1. Atom Heart Mother
2. Alan's Psychedelic Breakfast
3. The Libest Spacement Monitor
4. Corrosion
Лог проверки качества
-----------------------
DON'T MODIFY THIS FILE
-----------------------
PERFORMER: auCDtect Task Manager, ver. 1.5.1RC4 build 1.5.1.5
Copyright (c) 2008-2010 y-soft. All rights reserved
http://y-soft.org
ANALYZER: auCDtect: CD records authenticity detector, version 0.8.2
Copyright (c) 2004 Oleg Berngardt. All rights reserved.
Copyright (c) 2004 Alexander Djourik. All rights reserved.
FILE: 4. Corrosion.flac
Size: 18413321 Hash: 0DDB530D202089A08A07A3A7A5F44678 Accuracy: -m0
Conclusion: MPEG 100%
Signature: F8D6F392668BC2B559CB81F6E5CB53812A8FFBED
FILE: 3. The Libest Spacement Monitor.flac
Size: 45905735 Hash: 787AB29379C5D90F8FECA518DF327771 Accuracy: -m0
Conclusion: CDDA 100%
Signature: 2AA677F50F974E8269A31C8DDB25202D5268E0AD
FILE: 1. Atom Heart Mother.flac
Size: 126638491 Hash: D54946CA934387549A9A97A120413964 Accuracy: -m0
Conclusion: CDDA 87%
Signature: 3AA8A7A3FE1103BC001749816D14DE0E3743FC1E
FILE: 2. Alan's Psychedelic Breakfast.flac
Size: 116515644 Hash: 825EA8E4286807BD1E4519D31FA776B1 Accuracy: -m0
Conclusion: CDDA 100%
Signature: F6474FF6812DA60535717A53CC16F98029511D05
DR Log
foobar2000 1.1.10 / Dynamic Range Meter 1.1.1
log date: 2019-03-25 15:57:11
--------------------------------------------------------------------------------
Analyzed: Pink Floyd / Architects Of Sound [Disc 05]
--------------------------------------------------------------------------------
DR Peak RMS Duration Track
--------------------------------------------------------------------------------
DR13 -3.29 dB -20.67 dB 25:24 ?-Atom Heart Mother
DR11 -6.61 dB -23.18 dB 25:40 ?-Alan's Psychedelic Breakfast
DR12 -7.72 dB -24.85 dB 9:16 ?-The Libest Spacement Monitor
DR16 -6.03 dB -27.12 dB 5:50 ?-Corrosion
--------------------------------------------------------------------------------
Number of tracks: 4
Official DR value: DR13
Samplerate: 44100 Hz
Channels: 2
Bits per sample: 16
Bitrate: 412 kbps
Codec: FLAC
================================================================================
CD06 One of These Days Pompeii Echoes a Blues 00:52:07
1. Pompeii Intro
2. Mademoiselle Nobs
3. One of These Days
4. Echoes
5. Blues
Лог проверки качества
-----------------------
DON'T MODIFY THIS FILE
-----------------------
PERFORMER: auCDtect Task Manager, ver. 1.5.1RC4 build 1.5.1.5
Copyright (c) 2008-2010 y-soft. All rights reserved
http://y-soft.org
ANALYZER: auCDtect: CD records authenticity detector, version 0.8.2
Copyright (c) 2004 Oleg Berngardt. All rights reserved.
Copyright (c) 2004 Alexander Djourik. All rights reserved.
FILE: 1. Pompeii Intro.flac
Size: 8469015 Hash: 9DE576987A0C4CA01A19C81FE29D077F Accuracy: -m0
Conclusion: CDDA 100%
Signature: B82CE1D0FFE3C4474CB356E9DA372C84D5E6A534
FILE: 4. Echoes.flac
Size: 156410967 Hash: E9477FF9CFA50690219A36CEF1EBBBF6 Accuracy: -m0
Conclusion: CDDA 100%
Signature: A34675C494B1DEF2F4CC70A16F1808B005FF74FD
FILE: 5. Blues.flac
Size: 54254624 Hash: 255D42A105023F2CB14A402836044D2E Accuracy: -m0
Conclusion: CDDA 100%
Signature: A5DCE5B2F9130D167656E48AEF8F80C30C5A45A3
FILE: 3. One Of These Days.flac
Size: 51934679 Hash: E352AD2422CDDF1202B0EE87BD1A1370 Accuracy: -m0
Conclusion: MPEG 80%
Signature: 5D8244B8064C709785A38D22CD94C35A90A8D5EF
FILE: 2. Mademoiselle Nobs.flac
Size: 10281132 Hash: E0AD0BE73196A5D50D1F3A125BFE0FBC Accuracy: -m0
Conclusion: CDDA 99%
Signature: 8696969B7B979000516A0E4C93108CE15D76186B
DR Log
foobar2000 1.1.10 / Dynamic Range Meter 1.1.1
log date: 2019-03-25 15:59:26
--------------------------------------------------------------------------------
Analyzed: Pink Floyd / Architects Of Sound [Disc 06]
--------------------------------------------------------------------------------
DR Peak RMS Duration Track
--------------------------------------------------------------------------------
DR8 -4.19 dB -19.24 dB 1:49 ?-Pompeii Intro
DR11 -4.95 dB -19.76 dB 1:51 ?-Mademoiselle Nobs
DR10 -3.01 dB -16.05 dB 10:54 ?-One Of These Days
DR7 -6.00 dB -16.14 dB 28:25 ?-Echoes
DR10 -3.01 dB -16.96 dB 9:07 ?-Blues
--------------------------------------------------------------------------------
Number of tracks: 5
Official DR value: DR9
Samplerate: 44100 Hz
Channels: 2
Bits per sample: 16
Bitrate: 789 kbps
Codec: FLAC
================================================================================
CD07 Obscured by Clouds of the Dark Side 00:52:19
1. Obscured by Clouds + When You're In
2. Mudmen
3. Absolutely Courtains
4. Guitar Piece
5. Speak to Me
6. On the Run
7. The Great Gig in the Sky
8. Any Colour You Like
Лог проверки качества
-----------------------
DON'T MODIFY THIS FILE
-----------------------
PERFORMER: auCDtect Task Manager, ver. 1.5.1RC4 build 1.5.1.5
Copyright (c) 2008-2010 y-soft. All rights reserved
http://y-soft.org
ANALYZER: auCDtect: CD records authenticity detector, version 0.8.2
Copyright (c) 2004 Oleg Berngardt. All rights reserved.
Copyright (c) 2004 Alexander Djourik. All rights reserved.
FILE: 3. Absolutely Courtains.flac
Size: 26349297 Hash: BD139FED6F1DFA581233BEAC385B2E80 Accuracy: -m0
Conclusion: CDDA 100%
Signature: 42648B470C713D58B728E9A07F83B230291B86ED
FILE: 7. The Great Gig In The Sky.flac
Size: 35869422 Hash: 89B4C6359B128ED2217830800608CE49 Accuracy: -m0
Conclusion: CDDA 94%
Signature: 136ADBFDBAFDB7B4270974EC6B1369C87DA453F4
FILE: 6. On The Run.flac
Size: 43276361 Hash: 98D8C04731F6F6C3786D666432535568 Accuracy: -m0
Conclusion: CDDA 100%
Signature: 8C44DD01FCDDBA74798E0717717EF7D11DE467BD
FILE: 2. Mudmen.flac
Size: 22795170 Hash: F15CF4E2E1BB02C5CDDC1462B9282B3A Accuracy: -m0
Conclusion: CDDA 100%
Signature: EA5F44B8B66D13CFB6266E962372C761320199B2
FILE: 5. Speak To Me.flac
Size: 33319379 Hash: 3A0CAB5F84B9427CC517D0B0800918EC Accuracy: -m0
Conclusion: CDDA 100%
Signature: 54315E54B64A798B9A5DEABC0A3A9B188B5AD7E9
FILE: 8. Any Colour You Like.flac
Size: 52451547 Hash: 2297E7E128C3436B3D2871872C95B1E2 Accuracy: -m0
Conclusion: CDDA 100%
Signature: 7AC93A5E83033B9901F6E4E1C002024B10E3527B
FILE: 4. Guitar Piece.flac
Size: 8162467 Hash: B91E20F9C9D64CBD66E9C39151600558 Accuracy: -m0
Conclusion: MPEG 79%
Signature: 8A20F127DCD2322F1343375166373AA544C44521
FILE: 1. Obscured By Clouds - When You're In.flac
Size: 81491150 Hash: 5ABAAD4C8E21E3E00A2D39C00AB2CD81 Accuracy: -m0
Conclusion: CDDA 100%
Signature: 7D9203278B2E4E7B9186774DE5E822FB3A2ADB4D
DR Log
foobar2000 1.1.10 / Dynamic Range Meter 1.1.1
log date: 2019-03-25 16:01:52
--------------------------------------------------------------------------------
Analyzed: Pink Floyd / Architects Of Sound [Disc 07]
--------------------------------------------------------------------------------
DR Peak RMS Duration Track
--------------------------------------------------------------------------------
DR9 -3.53 dB -15.03 dB 13:30 ?-Obscured By Clouds - When You're In
DR12 -3.01 dB -18.46 dB 4:14 ?-Mudmen
DR11 -3.01 dB -22.54 dB 5:47 ?-Absolutely Courtains
DR10 -6.10 dB -19.79 dB 1:29 ?-Guitar Piece
DR12 -8.59 dB -25.18 dB 5:53 ?-Speak To Me
DR9 -0.86 dB -16.17 dB 6:57 ?-On The Run
DR10 -7.57 dB -22.97 dB 5:52 ?-The Great Gig In The Sky
DR11 -6.56 dB -20.99 dB 8:37 ?-Any Colour You Like
--------------------------------------------------------------------------------
Number of tracks: 8
Official DR value: DR11
Samplerate: 44100 Hz
Channels: 2
Bits per sample: 16
Bitrate: 808 kbps
Codec: FLAC
================================================================================
CD08 Shine on the Last Few Bricks of Reason 00:59:20
1. Shine On You Crazy Diamond (parts 1-5)
2. Shine On You Crazy Diamond (parts 6-9)
3. The Last Few Bricks
4. Signs of Life
5. Round and Around
6 . Terminal Frost
Лог проверки качества
-----------------------
DON'T MODIFY THIS FILE
-----------------------
PERFORMER: auCDtect Task Manager, ver. 1.5.1RC4 build 1.5.1.5
Copyright (c) 2008-2010 y-soft. All rights reserved
http://y-soft.org
ANALYZER: auCDtect: CD records authenticity detector, version 0.8.2
Copyright (c) 2004 Oleg Berngardt. All rights reserved.
Copyright (c) 2004 Alexander Djourik. All rights reserved.
FILE: 1. Shine On You Crazy Diamond (Parts 1-5).flac
Size: 71834387 Hash: 6203275764A2740F8576EE35AC6807EA Accuracy: -m0
Conclusion: ???
Signature: 14BD6DB68616DB7380D872A2A064D911A2E3928A
FILE: 4. Signs Of Life.flac
Size: 25729019 Hash: 9BD4AB54456CFB6E48376A95914D5009 Accuracy: -m0
Conclusion: CDDA 99%
Signature: BB43695CE630CB1F96407EC1A2DF9CA131365EEE
FILE: 6. Terminal Frost.flac
Size: 37509287 Hash: 4B9B8B25F48C664E45C93D4939D15C08 Accuracy: -m0
Conclusion: CDDA 100%
Signature: F24FF34668D2A1306BDD39E78DD83A38E0CDB8DC
FILE: 5. Round And Around.flac
Size: 5315892 Hash: F54A3460D6F4D913B4DEC835FC573E42 Accuracy: -m0
Conclusion: CDDA 100%
Signature: B10E1505A8D897C847A580F49CBB39AE08DCC08F
FILE: 3. The Last Few Bricks.flac
Size: 47930885 Hash: 85D86F3067CBC8C31E8F45C6E337829A Accuracy: -m0
Conclusion: CDDA 100%
Signature: 958AD777E01DC2350D4D3C04ECCCA3D43E36FFFD
FILE: 2. Shine On You Crazy Diamond (Parts 6-9).flac
Size: 131440443 Hash: DEAD5FB17CDFAC4EA6DCFF3F8433634A Accuracy: -m0
Conclusion: ???
Signature: 873B81116CBDE43352C5C8C75C49FD6B82CDB741
DR Log
foobar2000 1.1.10 / Dynamic Range Meter 1.1.1
log date: 2019-03-25 16:05:54
--------------------------------------------------------------------------------
Analyzed: Pink Floyd / Architects Of Sound [Disc 08]
--------------------------------------------------------------------------------
DR Peak RMS Duration Track
--------------------------------------------------------------------------------
DR12 0.00 dB -16.15 dB 13:20 ?-Shine On You Crazy Diamond (Parts 1-5)
DR11 -6.34 dB -21.62 dB 22:56 ?-Shine On You Crazy Diamond (Parts 6-9)
DR14 -7.43 dB -26.63 dB 12:01 ?-The Last Few Bricks
DR11 -3.25 dB -18.75 dB 4:23 ?-Signs Of Life
DR11 -6.76 dB -21.64 dB 0:49 ?-Round And Around
DR10 -3.58 dB -17.30 dB 5:50 ?-Terminal Frost
--------------------------------------------------------------------------------
Number of tracks: 6
Official DR value: DR11
Samplerate: 44100 Hz
Channels: 2
Bits per sample: 16
Bitrate: 851 kbps
Codec: FLAC
================================================================================
CD09 The Last Instrumentals 01:01:35
1. Country Theme
2. Small Theme
3. Big Theme
4. Carrera Slow Blues
5. Mexico '78
6. Pan Am Shuffle
7. Cluster One
8. Marooned
9. Soundscape
Лог проверки качества
-----------------------
DON'T MODIFY THIS FILE
-----------------------
PERFORMER: auCDtect Task Manager, ver. 1.5.1RC4 build 1.5.1.5
Copyright (c) 2008-2010 y-soft. All rights reserved
http://y-soft.org
ANALYZER: auCDtect: CD records authenticity detector, version 0.8.2
Copyright (c) 2004 Oleg Berngardt. All rights reserved.
Copyright (c) 2004 Alexander Djourik. All rights reserved.
FILE: 1 . Country Theme.flac
Size: 12788047 Hash: 35AF392AE27265C91A6D6751DB27D74C Accuracy: -m0
Conclusion: CDDA 85%
Signature: B25258C7C8084C226452F37CCD3EE877A43EF71D
FILE: 2. Small Theme.flac
Size: 38418661 Hash: 24253FF5B2ACD5FBE6B1C60147C584E3 Accuracy: -m0
Conclusion: CDDA 100%
Signature: 50ED61A7D27C38279E946047CE0304BDBBEA075C
FILE: 3. Big Theme.flac
Size: 26507179 Hash: 21645A3270E9E3A3EA4566365E7AAD5B Accuracy: -m0
Conclusion: CDDA 100%
Signature: 63117A3D9D1069A7267397660935D0D1B2C92A9D
FILE: 4. Carrera Slow Blues.flac
Size: 17090522 Hash: E7668A749EBE1BC35DBEC65E104498E0 Accuracy: -m0
Conclusion: CDDA 100%
Signature: DB7860D3C347C5A8B267C9AD628E34573B2AE059
FILE: 5. Mexico '78.flac
Size: 27096295 Hash: DC095033D49B0DF363A34BC40899512A Accuracy: -m0
Conclusion: CDDA 99%
Signature: 08DDF43722F295AA7A518ECF17302544CA063CF0
FILE: 6. Pan Am Shuffle.flac
Size: 53647394 Hash: 3669671EA32B9BBBD0754EC783C4AD2D Accuracy: -m0
Conclusion: CDDA 100%
Signature: 7C8746531F6402EF0304D8248084BD5387B637F5
FILE: 7. Cluster One.flac
Size: 27136006 Hash: 82E651A029E34B77B8BDDF0D861BC21D Accuracy: -m0
Conclusion: CDDA 100%
Signature: FEEDEF47FE5A1BBCBD727A841D51566B74D1A55C
FILE: 8. Marooned.flac
Size: 26846447 Hash: 8BC1F49EE3EED6D40087D3429E7F28CE Accuracy: -m0
Conclusion: CDDA 99%
Signature: E49B461826B9C2A525998FD2E3B073D518C9342A
FILE: 9. Soundscape.flac
Size: 144240749 Hash: FBFE9F218B0961BC19D9B57C021650DB Accuracy: -m0
Conclusion: CDDA 100%
Signature: 4C75EC57005B22F4DCBF2B295AC902886BBEA186
DR Log
foobar2000 1.1.10 / Dynamic Range Meter 1.1.1
log date: 2019-03-25 16:10:17
--------------------------------------------------------------------------------
Analyzed: Pink Floyd / Architects Of Sound [Disc 09]
--------------------------------------------------------------------------------
DR Peak RMS Duration Track
--------------------------------------------------------------------------------
DR10 -0.02 dB -12.34 dB 2:00 ?-Country Theme
DR9 -0.04 dB -12.69 dB 7:23 ?-Small Theme
DR11 -0.01 dB -13.16 dB 4:10 ?-Big Theme
DR11 0.00 dB -13.38 dB 2:20 ?-Carrera Slow Blues
DR10 -0.02 dB -12.63 dB 4:05 ?-Mexico '78
DR10 0.00 dB -12.76 dB 8:09 ?-Pan Am Shuffle
DR12 -0.91 dB -18.10 dB 5:49 ?-Cluster One
DR11 -0.68 dB -13.58 dB 5:30 ?-Marooned
DR11 0.00 dB -16.25 dB 22:07 ?-Soundscape
--------------------------------------------------------------------------------
Number of tracks: 9
Official DR value: DR11
Samplerate: 44100 Hz
Channels: 2
Bits per sample: 16
Bitrate: 868 kbps
Codec: FLAC
================================================================================
CD10 Outtakes from this compilation 01:03:48
1. Keep Smiling People
2. The Embryo
3. Fat Old Sun
4. Shine On You Crazy Diamond (studio - Parts 1-9 complete mix)
Лог проверки качества
-----------------------
DON'T MODIFY THIS FILE
-----------------------
PERFORMER: auCDtect Task Manager, ver. 1.5.1RC4 build 1.5.1.5
Copyright (c) 2008-2010 y-soft. All rights reserved
http://y-soft.org
ANALYZER: auCDtect: CD records authenticity detector, version 0.8.2
Copyright (c) 2004 Oleg Berngardt. All rights reserved.
Copyright (c) 2004 Alexander Djourik. All rights reserved.
FILE: 1 . Keep Smiling People.flac
Size: 50942669 Hash: 476BBA02FB46F0A799F2870D4B2C132D Accuracy: -m0
Conclusion: MPEG 100%
Signature: 1509AC474ECEE257B4A18D4EE1F620D49B52AA26
FILE: 2 . The Embryo.flac
Size: 73745374 Hash: FC33201CADDFE3EC219EA0404C42E2F4 Accuracy: -m0
Conclusion: CDDA 100%
Signature: A6AADB8C06C20E67A0E05FC4F0723E82CA302887
FILE: 3. Fat Old Sun.flac
Size: 102195832 Hash: 3F92DD707FE0409352B7FCD91C36BC71 Accuracy: -m0
Conclusion: CDDA 99%
Signature: CFF5F5F78977E74A7C7E33A58121E5289D1E41C0
FILE: 4. Shine On You Crazy Diamond (Parts 1-9).flac
Size: 135327873 Hash: 430114EA596079F3F0AB96B7C60A9CCA Accuracy: -m0
Conclusion: CDDA 99%
Signature: 714728FB355C6658C93A6FC2E5495DC6A818751B
DR Log
foobar2000 1.1.10 / Dynamic Range Meter 1.1.1
log date: 2019-03-25 16:16:31
--------------------------------------------------------------------------------
Analyzed: Pink Floyd / Architects Of Sound [Disc 10]
--------------------------------------------------------------------------------
DR Peak RMS Duration Track
--------------------------------------------------------------------------------
DR8 -0.70 dB -12.42 dB 10:10 ?-Keep Smiling People
DR9 -0.88 dB -13.45 dB 12:47 ?-The Embryo
DR10 -0.34 dB -13.50 dB 15:37 ?-Fat Old Sun
DR12 -3.21 dB -18.60 dB 25:14 ?-Shine On You Crazy Diamond (Parts 1-9)
--------------------------------------------------------------------------------
Number of tracks: 4
Official DR value: DR10
Samplerate: 44100 Hz
Channels: 2
Bits per sample: 16
Bitrate: 713 kbps
Codec: FLAC
================================================================================

Раздаю до первых 5-ти скачавших, на раздачи не возвращаюсь...
Download
Для скачивания .torrent файлов необходима регистрация
Сайт не распространяет и не хранит электронные версии произведений, а лишь предоставляет доступ к создаваемому пользователями каталогу ссылок на торрент-файлы, которые содержат только списки хеш-сумм
[Профиль]  [ЛС] 

wurensh

Moderator

Стаж: 9 лет 5 месяцев

Сообщений: 6128

wurensh · 26-Мар-19 12:09 (спустя 17 часов, ред. 26-Мар-19 13:56)

pirs18
Разместите в оформлении информацию о релизе.
Нужна информация о том, что такой релиз действительно существует в виде бокса из 10 CD в том виде, в котором представлен к раздаче, а не просто доступен для скачивания с определённого блога.
К указанному Вами в описании лейблу материал никакого отношения не имеет.
Общие правила публикации и оформления раздач
2.3 Запрещена раздача сборников собственного составления и единичных треков, не изданных официально, а также любительских ремастерингов официально изданных записей.
При раздаче официальных сборников и одиночных треков (синглов) в описании необходимо указать издателя (лейбл) или привести ссылку на официальный источник, подтверждающую выход такого издания.
? недооформлено
[Профиль]  [ЛС] 

bot · 26-Мар-19 13:58 (спустя 1 час 48 мин.)

Тема была перенесена из форума Progressive & Art-Rock (lossless) в форум Музыка (lossless)
wurensh
 
 
Ответить
Loading...
Error