[SN] [TR24] (Heavy Metal, Hard Rock, Blues Rock) Deep Purple - Machine Head - 1972/2019, FLAC (tracks)

Страницы:  1

Ответить
Автор
Сообщение

Гость


Гость · 21-Окт-18 22:55 (8 месяцев назад, ред. 26-Фев-19 19:17)

  • [Добавить опрос]
DEEP PURPLE
MACHINE HEAD

Источник обработки: HDtracks
Год выпуска: 1972/2001
Жанр: Hard Rock, Heavy Metal, Blues Rock
Продолжительность: 00:37:43
Обработка: шумопонижение (iZotope RX7)
Треклист:
6:06 01 - Highway Star
4:51 02 - Maybe I'm a Leo
5:06 03 - Pictures of Home
3:59 04 - Never Before
5:41 05 - Smoke on the Water
7:23 06 - Lazy
4:36 07 - Space Truckin'
Кодек: FLAC (*.flac)
Разрядность: 24/96
Формат: WAV (flac.ape.wv)
Количество каналов: 2.0
АЧХ, форма волны, спектр
Динамический диапазон
foobar2000 1.4.1 / Замер динамического диапазона (DR) 1.1.1
Дата отчёта: 2019-01-21 10:43:11
--------------------------------------------------------------------------------
Анализ: Deep Purple / Machine Head
--------------------------------------------------------------------------------
DR Пики RMS Продолжительность трека
--------------------------------------------------------------------------------
DR12 -0.01 дБ -13.48 дБ 6:06 01-Highway Star
DR14 -0.57 дБ -16.47 дБ 4:51 02-Maybe I'm a Leo
DR12 0.00 дБ -14.58 дБ 5:06 03-Pictures of Home
DR12 -0.48 дБ -14.61 дБ 3:59 04-Never Before
DR13 -0.14 дБ -15.73 дБ 5:41 05-Smoke on the Water
DR12 -0.20 дБ -14.92 дБ 7:23 06-Lazy
DR13 0.00 дБ -14.83 дБ 4:36 07-Space Truckin'
--------------------------------------------------------------------------------
Количество треков: 7
Реальные значения DR: DR13
Частота: 96000 Гц
Каналов: 2
Разрядность: 24
Битрейт: 3183 кбит/с
Кодек: FLAC
================================================================================


В Smoke on the Water тарелки задавил, в начале Highway Star барабаны свистят, скоро перезалив =)
25.03.2019 загружу обновленную версию
Download
Для скачивания .torrent файлов необходима регистрация
Сайт не распространяет и не хранит электронные версии произведений, а лишь предоставляет доступ к создаваемому пользователями каталогу ссылок на торрент-файлы, которые содержат только списки хеш-сумм
 

WOLF_EAG

Top Bonus 03* 1TB

Стаж: 8 лет 5 месяцев

Сообщений: 9059

WOLF_EAG · 22-Окт-18 11:08 (спустя 12 часов)

А раздавать Тов. Бендер будет?
[Профиль]  [ЛС] 

Гость


Гость · 22-Окт-18 13:45 (спустя 2 часа 36 мин.)

wolftrooper писал(а):
76180034А раздавать Тов. Бендер будет?
Уже) С интернетом проблемы были
 

Гость


Гость · 21-Янв-19 13:06 (спустя 2 месяца 29 дней)

21.01.2019 - ОБНОВЛЕНО
Чем отличается от предыдущих?
Да всем. В прошлой раздаче не полностью был удален шум ленты. Вот для сравнения правый канал Lazy (00:01:21.902 - 00:01:23.769)
HDtracks

Эта раздача

АЧХ, форма волны, спектр раздачи за 17.01.2019 (за прошлые не сохранилось)
 

kent200

Стаж: 11 лет 3 месяца

Сообщений: 476

kent200 · 01-Май-19 16:01 (спустя 3 месяца 11 дней)

зачем шум тут удалять? сильно мешает? помоему это маразм какой то((
[Профиль]  [ЛС] 
 
Ответить
Loading...
Error