Бойцовский клуб для животных / Animal Fight Club (Тони Ли / Tony Lee) [Сезон 5, серии 1-8 из 8] [2016, Документальный, IPTV 1080i]

Страницы:  1
Ответить
Автор
Сообщение

zolimax

Top Seed 01* 40r

Стаж: 12 лет 6 месяцев

Сообщений: 285

zolimax · 05-Июн-18 01:34 (1 год 2 месяца назад, ред. 27-Апр-19 22:53)

Бойцовский клуб для животных / Animal Fight Club - Сезон 5
Год выпуска: 2016
Страна: США
Студия: National Geographic
Жанр: Документальный
Продолжительность: 00:44:00 x 8
Перевод: Студийный (одноголосый закадровый)
Доп. инфо о переводе: студия Велес
Режиссер: Тони Ли / Tony Lee
Описание: В программе Бойцовский клуб для животных показаны драки между самыми большими, маленькими, злыми и часто очень неожиданными бойцами мира животных. От львов и бегемотов, волков, бизонов и крокодилов, до мельчайших мышей и жуков – соперники происходят из разных уголков света. Животные пускают в ход клыки, когти и бивни, сражаясь друг с другом за пищу, территорию и право на спаривание. В Бойцовском Клубе для Животных вы найдете яркий свет, драму и тестостерон традиционных боев без правил - сериал раскрывает секреты тактики и оружия, которое люди не могут использовать. Здесь нет запрещенных приемов – в дикой природе в ход идет все.
Сэмпл: Скачать
Тип релиза: IPTV 1080i
Контейнер: TS
Видео: AVC, 1920x1080, 16:9, 13500 kbps vbr avg, 25 fps
Аудио: RUS, MP2, stereo, 48000 Hz, 192 kbps
MediaInfo
General
ID : 1 (0x1)
Complete name : G:\Video\Animal Fight Club S05 (2016)\S05E04 Плоды террора-Margin of Terror.ts
Format : MPEG-TS
File size : 4.60 GiB
Duration : 44 min 10 s
Overall bit rate mode : Variable
Overall bit rate : 14.9 Mb/s
Video
ID : 256 (0x100)
Menu ID : 1 (0x1)
Format : AVC
Format/Info : Advanced Video Codec
Format profile : [email protected]
Format settings : CABAC / 3 Ref Frames
Format settings, CABAC : Yes
Format settings, RefFrames : 3 frames
Codec ID : 27
Duration : 44 min 10 s
Bit rate : 14.0 Mb/s
Width : 1 920 pixels
Height : 1 080 pixels
Display aspect ratio : 16:9
Frame rate : 25.000 FPS
Standard : Component
Color space : YUV
Chroma subsampling : 4:2:0
Bit depth : 8 bits
Scan type : Interlaced
Scan type, store method : Separated fields
Scan order : Top Field First
Bits/(Pixel*Frame) : 0.269
Stream size : 4.31 GiB (94%)
Color range : Limited
Color primaries : BT.709
Transfer characteristics : BT.709
Matrix coefficients : BT.709
Audio
ID : 257 (0x101)
Menu ID : 1 (0x1)
Format : MPEG Audio
Format version : Version 1
Format profile : Layer 2
Codec ID : 3
Duration : 44 min 10 s
Bit rate mode : Constant
Bit rate : 192 kb/s
Channel(s) : 2 channels
Sampling rate : 48.0 kHz
Compression mode : Lossy
Delay relative to video : 4 ms
Stream size : 60.7 MiB (1%)
Menu
ID : 4096 (0x1000)
Menu ID : 1 (0x1)
Duration : 44 min 10 s
List : 256 (0x100) (AVC) / 257 (0x101) (MPEG Audio)
Service name : Service01
Service provider : FFmpeg
Service type : digital television
Список серий
01 Буйство!-Rampage
02 Рискни или умри-Dare or Die
03 План нападения-Plan of Attack
04 Плоды террора-Margin of Terror
05 Полное превосходство-Total Domination
06 Победитель получает всё-Winner Takes All
07 Настоящий зверь-Release the Beast
08 Костоломы-Bone Crushers
Скриншоты
Download
Сайт не распространяет и не хранит электронные версии произведений, а лишь предоставляет доступ к создаваемому пользователями каталогу ссылок на торрент-файлы, которые содержат только списки хеш-сумм
Как скачивать? (для скачивания .torrent файлов необходима регистрация)
[Профиль]  [ЛС] 

zolimax

Top Seed 01* 40r

Стаж: 12 лет 6 месяцев

Сообщений: 285

zolimax · 12-Янв-19 21:47 (спустя 7 месяцев)

Торрент обновлен: Добавлены серии 2, 3.
[Профиль]  [ЛС] 

zolimax

Top Seed 01* 40r

Стаж: 12 лет 6 месяцев

Сообщений: 285

zolimax · 22-Янв-19 01:04 (спустя 9 дней)

Торрент обновлен: Добавлены серии 5-8.
[Профиль]  [ЛС] 

Vlad_Perelygin

Стаж: 11 лет 1 месяц

Сообщений: 11


Vlad_Perelygin · 22-Май-19 10:44 (спустя 4 месяца)

Дайте скачать, пожалст
[Профиль]  [ЛС] 
 
Ответить
Loading...
Error