National Geographic : Крокодил - властелин африканских рек / National Geographic : The Ultimate crocodile [2002, Научно-популярный, DVDRip]

Страницы:  1

Ответить
Автор
Сообщение

TORMOZ2

Top Loader 02* 300GB

Стаж: 11 лет 5 месяцев

Сообщений: 375

TORMOZ2 · 02-Апр-14 18:50 (5 лет 2 месяца назад)

National Geographic : Крокодил - властелин африканских рек / National Geographic : The Ultimate crocodile
Дата/Год выпуска: 2002
Страна: США
Жанр: Научно-популярный
Продолжительность: 00:54:08
Перевод: Студийный (одноголосый закадровый)
Доп. инфо о переводе: (Ю.Сербин)
Русские субтитры: нет
Описание: Рассказ о крокодилах Африки ...
качество: DVDRip
формат: AVI
Видео: Video: 640x480 (1.33:1), 25 fps, XviD build 50 ~1999 kbps avg, 0.26 bit/pixe
Аудио: Audio: 44.100 kHz, MPEG Layer 3, 2 ch, ~128.00 kbps avg
MediaInfo
General
Complete name : H:\NG Крокодил - властелин Африканских рек.avi
Format : AVI
Format/Info : Audio Video Interleave
File size : 828 MiB
Duration : 54mn 9s
Overall bit rate : 2 138 Kbps
Writing application : Lavf52.57.1
Video
ID : 0
Format : xvid
Codec ID : xvid
Duration : 54mn 9s
Bit rate : 1 997 Kbps
Width : 640 pixels
Height : 480 pixels
Display aspect ratio : 4:3
Frame rate : 25.000 fps
Bits/(Pixel*Frame) : 0.260
Stream size : 774 MiB (93%)
Audio
ID : 1
Format : MPEG Audio
Format version : Version 1
Format profile : Layer 3
Mode : Joint stereo
Codec ID : 55
Codec ID/Hint : MP3
Duration : 54mn 9s
Bit rate mode : Constant
Bit rate : 128 Kbps
Channel(s) : 2 channels
Sampling rate : 44.1 KHz
Compression mode : Lossy
Stream size : 49.6 MiB (6%)
Alignment : Aligned on interleaves
Interleave, duration : 26 ms (0.65 video frame)
Writing library : LAME3.98.2
Скриншоты
Сэмпл http:// СПАМ
Download
Для скачивания .torrent файлов необходима регистрация
Сайт не распространяет и не хранит электронные версии произведений, а лишь предоставляет доступ к создаваемому пользователями каталогу ссылок на торрент-файлы, которые содержат только списки хеш-сумм
[Профиль]  [ЛС] 
 
Ответить
Loading...
Error