Бойцовский клуб для леопарда / Leopard Fight Club (Ян Лампен / Jan Lampen) [2013, Документальный, HDTV 1080i]

Страницы:  1

Ответить
Автор
Сообщение

LeXa 84

Top Seed 02* 80r

Стаж: 11 лет 2 месяца

Сообщений: 219

LeXa 84 · 22-Апр-14 17:49 (5 лет 1 месяц назад, ред. 28-Апр-14 17:09)

Бойцовский клуб для леопарда
Leopard Fight Club


Год выпуска: 2013
Страна: США
Жанр: Документальный
Продолжительность: 00:43:40
Перевод: Студийный (одноголосый закадровый)
Доп. инфо о переводе: Михаил Тихонов / АРК·ТВ
Русские субтитры: нет
Режиссер: Ян Лампен / Jan Lampen
Описание: Перед вами удивительная история леопарда, за четыре года превратившегося из котёнка в гордое и сильное животное. История увидена глазами бабуина, охраняющего стаю.
Сэмпл:
Тип релиза: HDTV 1080i
Контейнер: TS
Видео кодек: H.264
Аудио кодек: AC3
Видео: MPEG4 Video (H.264), 1920x1080, 16:9, ~9806 kbps, 25 fps
Аудио RUS: AC3, 384 Кбит/с, 48 kHz, 6 ch
Аудио ENG: AC3, 384 Кбит/с, 48 kHz, 6 ch
MediaInfo
General
ID : 1 (0x1)
Complete name : \...\Бойцовский клуб для леопарда\Leopard Fight Club (Rus, Eng, HDTV-1080i, h264, AC3) [2013].ts
Format : MPEG-TS
File size : 3.40 GiB
Duration : 43mn 40s
Overall bit rate mode : Variable
Overall bit rate : 11.1 Mbps
Maximum Overall bit rate : 35.5 Mbps
Video
ID : 4113 (0x1011)
Menu ID : 1 (0x1)
Format : AVC
Format/Info : Advanced Video Codec
Format profile : [email protected]
Format settings, CABAC : Yes
Format settings, ReFrames : 3 frames
Codec ID : 27
Duration : 43mn 40s
Bit rate mode : Variable
Bit rate : 9 806 Kbps
Maximum bit rate : 40.0 Mbps
Width : 1 920 pixels
Height : 1 080 pixels
Display aspect ratio : 16:9
Frame rate : 25.000 fps
Standard : Component
Color space : YUV
Chroma subsampling : 4:2:0
Bit depth : 8 bits
Scan type : Interlaced
Scan order : Top Field First
Bits/(Pixel*Frame) : 0.189
Stream size : 2.99 GiB (88%)
Color primaries : BT.709
Transfer characteristics : BT.709
Matrix coefficients : BT.709
Audio #1
ID : 4352 (0x1100)
Menu ID : 1 (0x1)
Format : AC-3
Format/Info : Audio Coding 3
Mode extension : CM (complete main)
Format settings, Endianness : Big
Codec ID : 129
Duration : 43mn 40s
Bit rate mode : Constant
Bit rate : 384 Kbps
Channel(s) : 6 channels
Channel positions : Front: L C R, Side: L R, LFE
Sampling rate : 48.0 KHz
Bit depth : 16 bits
Compression mode : Lossy
Delay relative to video : -12ms
Stream size : 120 MiB (3%)
Language : Russian
Audio #2
ID : 4353 (0x1101)
Menu ID : 1 (0x1)
Format : AC-3
Format/Info : Audio Coding 3
Mode extension : CM (complete main)
Format settings, Endianness : Big
Codec ID : 129
Duration : 43mn 40s
Bit rate mode : Constant
Bit rate : 384 Kbps
Channel(s) : 6 channels
Channel positions : Front: L C R, Side: L R, LFE
Sampling rate : 48.0 KHz
Bit depth : 16 bits
Compression mode : Lossy
Delay relative to video : -22ms
Stream size : 120 MiB (3%)
Language : English
Скриншоты
Download
Для скачивания .torrent файлов необходима регистрация
Сайт не распространяет и не хранит электронные версии произведений, а лишь предоставляет доступ к создаваемому пользователями каталогу ссылок на торрент-файлы, которые содержат только списки хеш-сумм
[Профиль]  [ЛС] 
 
Ответить
Loading...
Error