Секреты шмелей / Secrets of bumblebees (Курт Мюндл) [2013, Документальный, насекомые, познавательный, HDTVRip 720p]

Страницы:  1
Ответить
Автор
Сообщение

kyba62

Top Bonus 07* 100TB

Стаж: 11 лет 3 месяца

Сообщений: 866

kyba62 · 06-Дек-14 19:07 (4 года 8 месяцев назад, ред. 25-Фев-17 22:24)

Секреты шмелей / Secrets of bumblebees
Год выпуска: 2013
Страна: Австрия
Студия: Produced by Power of Earth Productons for ORF
Жанр: Документальный, насекомые, познавательный
Продолжительность: 00:50:36
Перевод: Одноголосый закадровый
Режиссер: Курт Мюндл
Описание: Они больше, пушистей и спокойнее, чем пчелы. Они не так агрессивны и напористы, как осы. Когда ранней весной появляются первые шмели, они вызывают улыбки на наших лицах. Они - неуклюжие комики в театре насекомых!
Сэмпл: https://www.sendspace.com/file/0qqe2j
Тип релиза: HDTVRip 720p
Контейнер: MKV
Видео: MPEG-4 AVC, 4100 Кбит/с, 1280x720
Аудио: AC3, 6 ch, 448 Кбит/с
MediaInfo
General
Unique ID : 213320389687088800974856293511763282655 (0xA07C033B5ED8AE978E01932D42974ADF)
Complete name : M:\Торренты\Документальные\Секреты шмелей_720p.mkv
Format : Matroska
Format version : Version 4 / Version 2
File size : 1.61 GiB
Duration : 50mn 36s
Overall bit rate : 4 548 Kbps
Encoded date : UTC 2014-12-10 13:19:55
Writing application : mkvmerge v6.6.0 ('The Edge Of The In Between') built on Dec 1 2013 17:55:00
Writing library : libebml v1.3.0 + libmatroska v1.4.1
Video
ID : 1
Format : AVC
Format/Info : Advanced Video Codec
Format profile : [email protected]
Format settings, CABAC : Yes
Format settings, ReFrames : 9 frames
Codec ID : V_MPEG4/ISO/AVC
Duration : 50mn 36s
Bit rate : 4 100 Kbps
Width : 1 280 pixels
Height : 720 pixels
Display aspect ratio : 16:9
Frame rate mode : Constant
Frame rate : 25.000 fps
Color space : YUV
Chroma subsampling : 4:2:0
Bit depth : 8 bits
Scan type : Progressive
Bits/(Pixel*Frame) : 0.178
Stream size : 1.42 GiB (88%)
Writing library : x264 core 142 r2431 ac76440
Encoding settings : cabac=1 / ref=9 / deblock=1:-1:-1 / analyse=0x3:0x133 / me=umh / subme=9 / psy=1 / psy_rd=1.00:0.10 / mixed_ref=1 / me_range=32 / chroma_me=1 / trellis=2 / 8x8dct=1 / cqm=0 / deadzone=21,11 / fast_pskip=1 / chroma_qp_offset=-3
/ threads=6 / lookahead_threads=1 / sliced_threads=0 / nr=0 / decimate=0 / interlaced=0 / bluray_compat=0 / constrained_intra=0 / bframes=9 / b_pyramid=2 / b_adapt=2 / b_bias=0 / direct=3 / weightb=1 / open_gop=0 / weightp=2 / keyint=250 / keyint_min=23 / scenecut=40
/ intra_refresh=0 / rc=2pass / mbtree=0 / bitrate=4100 / ratetol=1.0 / qcomp=0.60 / qpmin=0 / qpmax=69 / qpstep=4 / cplxblur=20.0 / qblur=0.5 / ip_ratio=1.40 / pb_ratio=1.30 / aq=1:1.00
Language : English
Default : Yes
Forced : No
Audio
ID : 2
Format : AC-3
Format/Info : Audio Coding 3
Mode extension : CM (complete main)
Format settings, Endianness : Big
Codec ID : A_AC3
Duration : 50mn 36s
Bit rate mode : Constant
Bit rate : 448 Kbps
Channel(s) : 6 channels
Channel positions : Front: L C R, Side: L R, LFE
Sampling rate : 48.0 KHz
Bit depth : 16 bits
Compression mode : Lossy
Delay relative to video : 19ms
Stream size : 162 MiB (10%)
Language : Russian
Default : Yes
Forced : No
Скриншоты
Download
Сайт не распространяет и не хранит электронные версии произведений, а лишь предоставляет доступ к создаваемому пользователями каталогу ссылок на торрент-файлы, которые содержат только списки хеш-сумм
Как скачивать? (для скачивания .torrent файлов необходима регистрация)
[Профиль]  [ЛС] 

effrit_

Стаж: 10 лет 10 месяцев

Сообщений: 171


effrit_ · 06-Дек-14 20:31 (спустя 1 час 24 мин.)

спасибо - интересный фильм и хорошая озвучка.
кому интересна тема, есть ещё крутой фильм про пчел и техногенные факторы - More Than Honey
[Профиль]  [ЛС] 

Feelalive

Стаж: 11 лет 1 месяц

Сообщений: 64

Feelalive · 07-Дек-14 17:13 (спустя 20 часов)

Predator153 писал(а):
66099054больше фильмов от ORF
спасибо
поддерживаю
скрытый текст
[Профиль]  [ЛС] 

kyba62

Top Bonus 07* 100TB

Стаж: 11 лет 3 месяца

Сообщений: 866

kyba62 · 10-Дек-14 17:18 (спустя 3 дня)

Приношу глубокие извинения. Торрент-файл и фильм изменён, приведён в соответствие тех. данными.
Скачавшие, перехешируйте пожалуйста раздачу.
[Профиль]  [ЛС] 

AndreoGambo

Стаж: 8 лет 10 месяцев

Сообщений: 63

AndreoGambo · 20-Апр-15 16:09 (спустя 4 месяца 9 дней)

effrit_ писал(а):
66094020спасибо - интересный фильм и хорошая озвучка.
кому интересна тема, есть ещё крутой фильм про пчел и техногенные факторы - More Than Honey
More Than Honey - просто шедевр! Тоже рекомендую.
[Профиль]  [ЛС] 

анятюля оляля

Стаж: 2 года 11 месяцев

Сообщений: 286


анятюля оляля · 15-Апр-18 05:18 (спустя 2 года 11 месяцев)

Спасибо за прекрасных шмелей-богатырей!!!! Обожаю с детства этих чудесных насекомых, помощников наших и бесценных работяг-опылителей! А уж как они замечательно жужжат....
[Профиль]  [ЛС] 
 
Ответить
Loading...
Error