Земля медведей / Land of the Bears / Terre des ours (Гийом Венсан / Guillaume Vincent) [2013, документальный, приключения, семейный, BDRip, 720p]

Страницы:  1
Ответить
Автор
Сообщение

ovie

Top Seed 02* 80r

Стаж: 11 лет 3 месяца

Сообщений: 456

ovie · 16-Май-15 03:52 (4 года 3 месяца назад, ред. 19-Май-15 19:46)

Земля медведей / Land of the Bears / Terre des ours
«Путешествие в загадочный мир Камчатки»
Дата/Год выпуска: 2013
Страна: Франция
Жанр: документальный, приключения, семейный
Продолжительность: 01:26:11
Перевод: Авторский (одноголосый закадровый)
Доп. инфо о переводе: Сергей Корчак
Русские субтитры: есть
Формат субтитров: softsub (SRT)
Доп. информация о субтитрах: Перевод субтитров - Владимир Мерленко.
Оригинальная аудиодорожка: французский
Режиссер: Гийом Венсан / Guillaume Vincent
Описание: Документальный фильм рассказывающий о жизни медведей от самого младенчества, до перехода во взрослую жизнь, где никто и никогда больше будет помогать выжить в суровые и долгие зимы. Фильм пестрит прекрасными пейзажами нетронутой и девственной природы в различные времена года, где каждый сезон манит своей неповторимой красотой. В картине покажут жизнь одной семьи медведей, которая после длительной спячки пробуждается и идет по склонам прекрасных холмов к реке и далее к морю в поисках пропитания и накопления жира на предстоящий зимний сезон. И если же в новом сезоне не получится набрать много запасов жира, то зимой практически не остается ни каких шансов на выживание, ведь еды практически нет, а сил на поиски тратится куда больше чем весной.
качество: BDRip 720p
формат: MKV
Видео: 1280x534 at 23.976 fps, [email protected], ~4970 kbps avg
Аудио: Russian: 48 kHz, AC3, 3/2 (L,C,R,l,r) + LFE ch, ~640.00 kbps avg |Одноголосый, Сергей Корчак|
Аудио 2: French: 48 kHz, AC3, 3/2 (L,C,R,l,r) + LFE ch, ~640.00 kbps avg |Одноголосый, Марион Котийяр / Marion Cotillard|
Аудио 3: English: 48 kHz, AC3, 3/2 (L,C,R,l,r) + LFE ch, ~640.00 kbps avg |Одноголосый, Дэвид Гасман / David Gasman|
Аудио 4: Nature: 48 kHz, AC3, 3/2 (L,C,R,l,r) + LFE ch, ~640.00 kbps avg |Звуки природы / Nature sound|
Субтитры: Russian, French, English
Релиз: by DeTorquemada
Перевод и озвучка осуществлены в рамках сервиса "Озвучивание". Спонсоры: goriathid, Plesha, toshikk22, ns112bel, dsk71, qwerty2014, Ex1l, DeTorquemada, Кarevro, ash61, Insider1, funxd, Воваростов, longru, asound, Snow_Leopard, Кириллка, lokolex, gelom, konarev, urassiks, luzik, RAUL
Только 2D / Only 2D
MediaInfo
Общее
Уникальный идентификатор : 174806316180900139015566227655829346615 (0x838278CD220F35D5B4AABDC46371D937)
Полное имя : Land.of.the.Bears.2013.720p.BluRay.Rus.Fre.Eng.Sound.Tur.HDCLUB.mkv
Формат : Matroska
Версия формата : Version 4 / Version 2
Размер файла : 4,74 Гбайт
Продолжительность : 1 ч. 26 м.
Общий поток : 7878 Кбит/сек
Название фильма : Create by DeTorquemada for HDCLUB
Дата кодирования : UTC 2015-05-14 18:17:28
Программа кодирования : mkvmerge v7.9.0 ('Birds') 64bit
Библиотека кодирования : libebml v1.3.1 + libmatroska v1.4.2
Видео
Идентификатор : 1
Формат : AVC
Формат/Информация : Advanced Video Codec
Профиль формата : [email protected]
Параметр CABAC формата : Да
Параметр ReFrames формата : 7 кадров
Идентификатор кодека : V_MPEG4/ISO/AVC
Продолжительность : 1 ч. 26 м.
Битрейт : 4970 Кбит/сек
Ширина : 1280 пикселей
Высота : 534 пикселя
Соотношение сторон : 2,40:1
Режим частоты кадров : Постоянный
Частота кадров : 23,976 кадра/сек
Цветовое пространство : YUV
Субдискретизация насыщенности : 4:2:0
Битовая глубина : 8 бит
Тип развёртки : Прогрессивная
Бит/(Пиксели*Кадры) : 0.303
Размер потока : 2,99 Гбайт (63%)
Заголовок : Земля медведей / Land of the Bears / Terre des ours (2013) - Release for HDCLUB
Библиотека кодирования : x264 core 146 r2538 121396c
Настройки программы : cabac=1 / ref=7 / deblock=1:-3:-3 / analyse=0x3:0x113 / me=umh / subme=10 / psy=1 / psy_rd=1.00:0.00 / mixed_ref=1 / me_range=48 / chroma_me=1 / trellis=2 / 8x8dct=1 / cqm=0 / deadzone=21,11 / fast_pskip=1 / chroma_qp_offset=-2 / threads=6 / lookahead_threads=1 / sliced_threads=0 / nr=0 / decimate=1 / interlaced=0 / bluray_compat=0 / constrained_intra=0 / bframes=3 / b_pyramid=2 / b_adapt=2 / b_bias=0 / direct=1 / weightb=1 / open_gop=0 / weightp=2 / keyint=240 / keyint_min=23 / scenecut=40 / intra_refresh=0 / rc_lookahead=65 / rc=crf / mbtree=0 / crf=18.0 / qcomp=0.60 / qpmin=0 / qpmax=69 / qpstep=4 / vbv_maxrate=50000 / vbv_bufsize=62500 / crf_max=0.0 / nal_hrd=none / filler=0 / ip_ratio=1.40 / pb_ratio=1.30 / aq=1:0.80
Язык : French
Default : Да
Forced : Нет
Коэффициенты матрицы : BT.709
Аудио #1
Идентификатор : 2
Формат : AC-3
Формат/Информация : Audio Coding 3
Расширение режима : CM (complete main)
Параметр Endianness формата : Big
Идентификатор кодека : A_AC3
Продолжительность : 1 ч. 26 м.
Вид битрейта : Постоянный
Битрейт : 640 Кбит/сек
Каналы : 6 каналов
Расположение каналов : Front: L C R, Side: L R, LFE
Частота : 48,0 КГц
Битовая глубина : 16 бит
Метод сжатия : С потерями
Размер потока : 395 Мбайт (8%)
Заголовок : 48KHz/16-bit, AC3, 3/2 (L,C,R,l,r) + LFE ch, 640 kbps - Сергей Корчак
Язык : Russian
Default : Да
Forced : Нет
Аудио #2
Идентификатор : 3
Формат : AC-3
Формат/Информация : Audio Coding 3
Расширение режима : CM (complete main)
Параметр Endianness формата : Big
Идентификатор кодека : A_AC3
Продолжительность : 1 ч. 26 м.
Вид битрейта : Постоянный
Битрейт : 640 Кбит/сек
Каналы : 6 каналов
Расположение каналов : Front: L C R, Side: L R, LFE
Частота : 48,0 КГц
Битовая глубина : 16 бит
Метод сжатия : С потерями
Размер потока : 395 Мбайт (8%)
Заголовок : 48KHz/16-bit, AC3, 3/2 (L,C,R,l,r) + LFE ch, 640 kbps - Марион Котийяр / Marion Cotillard
Язык : French
Default : Нет
Forced : Нет
Аудио #3
Идентификатор : 4
Формат : AC-3
Формат/Информация : Audio Coding 3
Расширение режима : CM (complete main)
Параметр Endianness формата : Big
Идентификатор кодека : A_AC3
Продолжительность : 1 ч. 26 м.
Вид битрейта : Постоянный
Битрейт : 640 Кбит/сек
Каналы : 6 каналов
Расположение каналов : Front: L C R, Side: L R, LFE
Частота : 48,0 КГц
Битовая глубина : 16 бит
Метод сжатия : С потерями
Размер потока : 395 Мбайт (8%)
Заголовок : 48KHz/16-bit, AC3, 3/2 (L,C,R,l,r) + LFE ch, 640 kbps - Дэвид Гасман / David Gasman
Язык : English
Default : Нет
Forced : Нет
Аудио #4
Идентификатор : 5
Формат : AC-3
Формат/Информация : Audio Coding 3
Расширение режима : CM (complete main)
Параметр Endianness формата : Big
Идентификатор кодека : A_AC3
Продолжительность : 1 ч. 26 м.
Вид битрейта : Постоянный
Битрейт : 640 Кбит/сек
Каналы : 6 каналов
Расположение каналов : Front: L C R, Side: L R, LFE
Частота : 48,0 КГц
Битовая глубина : 16 бит
Метод сжатия : С потерями
Размер потока : 395 Мбайт (8%)
Заголовок : 48KHz/16-bit, AC3, 3/2 (L,C,R,l,r) + LFE ch, 640 kbps - Звуки природы / Nature sound
Язык : French
Default : Нет
Forced : Нет
Аудио #5
Идентификатор : 6
Формат : AC-3
Формат/Информация : Audio Coding 3
Расширение режима : CM (complete main)
Параметр Endianness формата : Big
Идентификатор кодека : A_AC3
Продолжительность : 1 ч. 26 м.
Вид битрейта : Постоянный
Битрейт : 192 Кбит/сек
Каналы : 2 канала
Расположение каналов : Front: L R
Частота : 48,0 КГц
Битовая глубина : 16 бит
Метод сжатия : С потерями
Размер потока : 118 Мбайт (2%)
Заголовок : 48KHz/16-bit, АС3, 2.0 (L,R) ch, 192 kbps
Язык : Turkish
Default : Нет
Forced : Нет
Текст #1
Идентификатор : 7
Формат : UTF-8
Идентификатор кодека : S_TEXT/UTF8
Идентификатор кодека/Информация : UTF-8 Plain Text
Заголовок : Subtitles/Captions
Язык : Russian
Default : Нет
Forced : Нет
Текст #2
Идентификатор : 8
Формат : UTF-8
Идентификатор кодека : S_TEXT/UTF8
Идентификатор кодека/Информация : UTF-8 Plain Text
Заголовок : Subtitles/Captions
Язык : French
Default : Нет
Forced : Нет
Текст #3
Идентификатор : 9
Формат : UTF-8
Идентификатор кодека : S_TEXT/UTF8
Идентификатор кодека/Информация : UTF-8 Plain Text
Заголовок : Subtitles/Captions
Язык : English
Default : Нет
Forced : Нет
Меню
00:00:00.000 : en:
00:06:19.670 : en:
00:15:29.595 : en:
00:20:06.413 : en:
00:27:38.698 : en:
00:35:26.833 : en:
00:40:18.290 : en:
00:47:38.021 : en:
00:55:06.761 : en:
01:01:43.741 : en:
01:08:20.805 : en:
01:16:04.351 : en:
01:26:11.249 : en:
Скриншоты
Download
Сайт не распространяет и не хранит электронные версии произведений, а лишь предоставляет доступ к создаваемому пользователями каталогу ссылок на торрент-файлы, которые содержат только списки хеш-сумм
Как скачивать? (для скачивания .torrent файлов необходима регистрация)
[Профиль]  [ЛС] 

Ole}I{ka1978

Стаж: 9 лет 2 месяца

Сообщений: 8


Ole}I{ka1978 · 22-Май-15 18:27 (спустя 6 дней)

Вот оно свершилось !!!
Думал, что уже никогда этот фильм не увижу.
СПАСИБО !!!
[Профиль]  [ЛС] 

tsaaari

Стаж: 7 лет 5 месяцев

Сообщений: 2


tsaaari · 04-Июн-15 12:48 (спустя 12 дней)

это же фильм МЕДВЕДИ, а не Земля Медведей! почему-то везде одно за другое выдают! так и не нашла фильм Земля Медведей! везде эта история про маму и двух медвежат, а это не тот фильм!
[Профиль]  [ЛС] 

Zofrik

Стаж: 11 лет 8 месяцев

Сообщений: 104

Zofrik · 05-Июн-15 03:25 (спустя 14 часов, ред. 05-Июн-15 03:25)

Это гениально. Трогательно, атмосферно, бесподобно.
Отличнейшая озвучка, получил нереальное удовольствие.
Как жаль, что так мало, неимоверное мало снимают таких фильмов, выделяя
сумасшедшие средства на фильмы-комиксы.
А вот же она — жизнь.
Спасибо!
[Профиль]  [ЛС] 

venkarm

Стаж: 8 лет 9 месяцев

Сообщений: 3


venkarm · 05-Июн-15 23:13 (спустя 19 часов)

tsaaari писал(а):
67958604это же фильм МЕДВЕДИ, а не Земля Медведей! почему-то везде одно за другое выдают! так и не нашла фильм Земля Медведей! везде эта история про маму и двух медвежат, а это не тот фильм!
Вы бы разобрались сначала.
Этот фильм снят французами на Камчатке, а тот Диснеевский - на Аляске.
разные они
[Профиль]  [ЛС] 

sex-utka

Стаж: 9 лет 6 месяцев

Сообщений: 19


sex-utka · 20-Окт-15 04:17 (спустя 4 месяца 14 дней)

tsaaari, Вы всех путаете! Тот фильм что Вы ищете как раз называется Медведи. Вот вам ссылка
http://www.kinopoisk.ru/film/713342/
[Профиль]  [ЛС] 

SaintVegas

Стаж: 10 лет

Сообщений: 57


SaintVegas · 23-Ноя-15 22:53 (спустя 1 месяц 3 дня)

Фильм классный, что тут скажешь. Люблю мишек. Только вот русская озвучка мне не очень нравится. Взяли западную моду - повествовать каким-то истошным дибильным голосом. Как будто ведут передачу про криминал. Почему нельзя просто рассказывать..?
[Профиль]  [ЛС] 

vladvihod10

Стаж: 9 лет 6 месяцев

Сообщений: 1


vladvihod10 · 26-Дек-15 23:49 (спустя 1 месяц 3 дня)

Радует факт, что скоро выйдет в прокат выйдет русская версия фильма про медведей Камчатки под названием "Медведи Камчатки. Начало жизни." Спасибо всем, кто помог в реализации данного проекта.
[Профиль]  [ЛС] 

orlovich1971

Стаж: 5 лет 8 месяцев

Сообщений: 1139

orlovich1971 · 31-Дек-16 01:06 (спустя 1 год)

Великолепный фильм.Благодарю от всей души.
[Профиль]  [ЛС] 

perezz08

Стаж: 11 лет 3 месяца

Сообщений: 113

perezz08 · 05-Янв-18 19:05 (спустя 1 год)

Потрясающе! Что-то толкнуло пересмотреть в семейном кругу на праздники, как медведи к зиме готовятся и не пожалели ни разу. И все это у нас, на Камчатке.
[Профиль]  [ЛС] 

vbhfgnbhfgnbf

Стаж: 5 лет 7 месяцев

Сообщений: 16


vbhfgnbhfgnbf · 10-Ноя-18 19:13 (спустя 10 месяцев)

vladvihod10 писал(а):
69603264Радует факт, что скоро выйдет в прокат выйдет русская версия фильма про медведей Камчатки под названием "Медведи Камчатки. Начало жизни." Спасибо всем, кто помог в реализации данного проекта.
что-то до сих пор не вышел.
[Профиль]  [ЛС] 
 
Ответить
Loading...
Error