[RM] [restored] [declipped] [16/44] (Instrumental Rock, Progressive Metal, Jazz Fusion) Liquid Tension Experiment - Дискография - 1998-2009, FLAC (tracks+.cue)

Страницы:  1

Ответить
Автор
Сообщение

Лисной Йожыг

Стаж: 10 лет 9 месяцев

Сообщений: 922

Лисной Йожыг · 25-Апр-16 21:12 (3 года 2 месяца назад, ред. 21-Фев-19 16:39)



Жанр: Instrumental Rock, Progressive Metal, Jazz Fusion
Год выпуска: 1998-2009
Аудио кодек: FLAC
Тип рипа: tracks+.cue
Формат раздачи: 16/44
Продолжительность: 09:57:30
Наличие сканов в содержимом раздачи: нет
Исходник для обработки: Дискография
Обработка: Устранение клиппинга, восстановление динамического диапазона, эквализация.

Studio albums
1998 - Liquid Tension Experiment
01. Paradigm Shift (8:55)
02. Osmosis (3:26)
03. Kindred Spirits (6:30)
04. The Stretch (2:01)
05. Freedom of Speech (9:19)
06. Chris and Kevin's Excellent Adventure (2:22)
07. State of Grace (5:02)
08. Universal Mind (7:53)
09. Three Minute Warning - Part I (8:20)
10. Three Minute Warning - Part II (4:03)
11. Three Minute Warning - Part III (5:19)
12. Three Minute Warning - Part IV (4:21)
13. Three Minute Warning - Part V (6:31)
Исходное издание: Magna Carta ‎– MA-9023-2
Обработка: Проведены деклиппинг, эквализация.

Спектр, АЧХ, Уровень записи, Динамический диапазон
Код:
foobar2000 1.3.19 / Замер динамического диапазона (DR) 1.1.1
Дата отчёта: 2019-02-20 21:35:48
--------------------------------------------------------------------------------
Анализ:   Liquid Tension Experiment / Liquid Tension Experiment
--------------------------------------------------------------------------------
DR         Пики          RMS        Продолжительность трека
--------------------------------------------------------------------------------
DR12      -0.50 дБ   -13.91 дБ      8:55 01-Paradigm Shift
DR12      -1.11 дБ   -16.41 дБ      3:26 02-Osmosis
DR11      -1.16 дБ   -14.30 дБ      6:30 03-Kindred Spirits
DR13      -0.75 дБ   -15.07 дБ      2:01 04-The Stretch
DR12      -1.86 дБ   -16.66 дБ      9:19 05-Freedom of Speech
DR14      -1.72 дБ   -17.26 дБ      2:22 06-Chris and Kevin's Excellent Adventure
DR10      -7.05 дБ   -20.01 дБ      5:02 07-State of Grace
DR12      -1.77 дБ   -15.48 дБ      7:53 08-Universal Mind
DR11      -1.46 дБ   -16.15 дБ      8:20 09-Three Minute Warning - Part I
DR11      -2.07 дБ   -16.08 дБ      4:03 10-Three Minute Warning - Part II
DR12      -0.74 дБ   -15.01 дБ      5:19 11-Three Minute Warning - Part III
DR12      -1.59 дБ   -15.00 дБ      4:21 12-Three Minute Warning - Part IV
DR12      -2.03 дБ   -16.57 дБ      6:31 13-Three Minute Warning - Part V
--------------------------------------------------------------------------------
Количество треков: 13
Реальные значения DR: DR12
Частота:  44100 Гц
Каналов:  2
Разрядность:   16
Битрейт:  874 кбит/с
Кодек:   FLAC
1999 - Liquid Tension Experiment 2
01. Acid Rain (6:36)
02. Biaxident (7:41)
03. 914 (4:01)
04. Another Dimension (9:51)
05. When the Water Breaks (16:58)
06. Chewbacca (13:36)
07. Liquid Dreams (10:50)
08. Hourglass (4:26)
Исходное издание: Magna Carta ‎– MA-9035-2
Обработка: Проведены деклиппинг, эквализация.

Спектр, АЧХ, Уровень записи, Динамический диапазон
Код:
foobar2000 1.3.19 / Замер динамического диапазона (DR) 1.1.1
Дата отчёта: 2019-02-20 21:38:59
--------------------------------------------------------------------------------
Анализ:   Liquid Tension Experiment / Liquid Tension Experiment 2
--------------------------------------------------------------------------------
DR         Пики          RMS        Продолжительность трека
--------------------------------------------------------------------------------
DR11      -1.17 дБ   -14.03 дБ      6:36 01-Acid Rain
DR12      -0.61 дБ   -14.45 дБ      7:41 02-Biaxident
DR12      -1.23 дБ   -14.69 дБ      4:01 03-914
DR12      -0.50 дБ   -14.61 дБ      9:51 04-Another Dimension
DR12      -0.95 дБ   -14.90 дБ     16:58 05-When the Water Breaks
DR11      -1.99 дБ   -16.43 дБ     13:36 06-Chewbacca
DR14      -1.78 дБ   -18.68 дБ     10:50 07-Liquid Dreams
DR12      -6.88 дБ   -21.30 дБ      4:26 08-Hourglass
--------------------------------------------------------------------------------
Количество треков: 8
Реальные значения DR: DR12
Частота:  44100 Гц
Каналов:  2
Разрядность:   16
Битрейт:  852 кбит/с
Кодек:   FLAC
2007 - Spontaneous Combustion
01. Chris and Kevin's Bogus Journey (7:54)
02. Hot Rod (6:21)
03. Rpp (3:06)
04. Hawiian Funk (4:39)
05. Cappuccino (3:26)
06. Jazz Odyssey (8:50)
07. Fire Dance (8:24)
08. The Rubberband Man (6:52)
09. Holes (4:39)
10. Tony's Nightmare (2:49)
11. Boom Boom (6:34)
12. Return of the Rubberband Man (9:43)
13. Disneyland Symphony (4:48)
Исходное издание: Magna Carta ‎– MA-9060-2
Обработка: Проведены деклиппинг, декомпрессия, эквализация.

Спектр, АЧХ, Уровень записи, Динамический диапазон
Код:
foobar2000 1.3.19 / Замер динамического диапазона (DR) 1.1.1
Дата отчёта: 2019-02-20 21:41:23
--------------------------------------------------------------------------------
Анализ:   Liquid Trio Experiment / Spontaneous Combustion
--------------------------------------------------------------------------------
DR         Пики          RMS        Продолжительность трека
--------------------------------------------------------------------------------
DR13      -1.77 дБ   -17.73 дБ      7:54 01-Chris and Kevin's Bogus Journey
DR12      -0.64 дБ   -16.56 дБ      6:21 02-Hot Rod
DR11      -1.11 дБ   -16.05 дБ      3:06 03-Rpp
DR11      -1.07 дБ   -15.97 дБ      4:39 04-Hawiian Funk
DR13      -2.89 дБ   -20.07 дБ      3:26 05-Cappuccino
DR10      -0.50 дБ   -15.68 дБ      8:50 06-Jazz Odyssey
DR12      -0.73 дБ   -17.52 дБ      8:24 07-Fire Dance
DR12      -3.34 дБ   -17.28 дБ      6:52 08-The Rubberband Man
DR13      -2.42 дБ   -17.60 дБ      4:39 09-Holes
DR8       -1.04 дБ   -11.97 дБ      2:49 10-Tony's Nightmare
DR12      -1.23 дБ   -16.02 дБ      6:34 11-Boom Boom
DR14      -1.36 дБ   -17.68 дБ      9:43 12-Return of the Rubberband Man
DR9       -2.34 дБ   -16.19 дБ      4:48 13-Disneyland Symphony
--------------------------------------------------------------------------------
Количество треков: 13
Реальные значения DR: DR12
Частота:  44100 Гц
Каналов:  2
Разрядность:   16
Битрейт:  748 кбит/с
Кодек:   FLAC
Live albums
2009 - LTE Live 2008

Live in LA
01. Acid Rain (10:43)
02. Kindred Spirits (7:53)
03. Biaxident (7:34)
04. Freedom of Speech (8:54)
05. Improv Jam #1 (8:21)
06. Another Dimension (10:31)
07. State of Grace (6:00)
08. Universal Mind Pt.1 (3:36)
09. Keyboard Solo (5:19)
10. Universal Mind Pt.2 (3:46)
11. When the Water Breaks (17:52)
12. Improv Jam #2 (13:03)
13. Rhapsody in Blue [George Gershwin cover] (13:34)
14. Osmosis (5:52)
15. Paradigm Shift (9:17)
Live in NYC
01. Acid Rain (9:25)
02. Kindred Spirits (8:00)
03. Biaxident (7:39)
04. Freedom of Speech (9:00)
05. Improv Jam #1 (8:10)
06. Another Dimension (10:51)
07. State of Grace (6:20)
08. Universal Mind (9:36)
09. When the Water Breaks (16:49)
10. Improv Jam #2 (11:31)
11. Rhapsody in Blue [George Gershwin cover] (13:50)
12. Osmosis (3:44)
13. Paradigm Shift (9:31)
Bonus
01. NYC (Early Show) Improv Jam #1 (6:53)
02. NYC (Early Show) Improv Jam #2 (7:41)
03. NEARfest Improv Jam #1 (3:42)
04. NEARfest Improv Jam #2 (5:42)
05. Chicago Improv Jam #1 (7:58)
06. San Francisco Improv Jam #1 (10:41)
07. San Francisco Improv Jam #2 (13:16)
Исходное издание: Lazy Tomato Entertainment ‎– none
Обработка: Проведены деклиппинг, декомпрессия, эквализация.

Спектр, АЧХ, Уровень записи, Динамический диапазон


Код:
foobar2000 1.3.19 / Замер динамического диапазона (DR) 1.1.1
Дата отчёта: 2019-02-20 21:53:45
--------------------------------------------------------------------------------
Анализ:   Liquid Tension Experiment / LTE Live 2008 - Live in LA
--------------------------------------------------------------------------------
DR         Пики          RMS        Продолжительность трека
--------------------------------------------------------------------------------
DR11      -0.65 дБ   -13.33 дБ     10:43 01-Acid Rain
DR10      -0.56 дБ   -12.47 дБ      7:53 02-Kindred Spirits
DR11      -0.64 дБ   -13.68 дБ      7:34 03-Biaxident
DR12      -0.50 дБ   -14.09 дБ      8:54 04-Freedom of Speech
DR12      -0.65 дБ   -15.27 дБ      8:21 05-Improv Jam #1
DR11      -0.59 дБ   -13.48 дБ     10:31 06-Another Dimension
DR11      -5.18 дБ   -20.25 дБ      6:00 07-State of Grace
DR11      -0.65 дБ   -12.10 дБ      3:36 08-Universal Mind Pt.1
DR10      -4.90 дБ   -17.80 дБ      5:19 09-Keyboard Solo
DR11      -0.69 дБ   -13.35 дБ      3:46 10-Universal Mind Pt.2
DR10      -0.34 дБ   -12.11 дБ     17:52 11-When the Water Breaks
DR11      -0.34 дБ   -13.93 дБ     13:03 12-Improv Jam #2
DR11      -0.35 дБ   -13.11 дБ     13:34 13-Rhapsody in Blue [George Gershwin cover]
DR12      -0.49 дБ   -15.13 дБ      5:52 14-Osmosis
DR10      -0.34 дБ   -12.01 дБ      9:17 15-Paradigm Shift
--------------------------------------------------------------------------------
Количество треков: 15
Реальные значения DR: DR11
Частота:  44100 Гц
Каналов:  2
Разрядность:   16
Битрейт:  881 кбит/с
Кодек:   FLAC
--------------------------------------------------------------------------------
Анализ:   Liquid Tension Experiment / LTE Live 2008 - Live in NYC
--------------------------------------------------------------------------------
DR         Пики          RMS        Продолжительность трека
--------------------------------------------------------------------------------
DR11      -0.80 дБ   -13.68 дБ      9:25 01-Acid Rain
DR10      -0.62 дБ   -13.00 дБ      8:00 02-Kindred Spirits
DR11      -0.97 дБ   -14.31 дБ      7:39 03-Biaxident
DR11      -0.71 дБ   -14.00 дБ      9:00 04-Freedom of Speech
DR12      -0.60 дБ   -16.40 дБ      8:10 05-Improv Jam #1
DR11      -0.62 дБ   -13.25 дБ     10:51 06-Another Dimension
DR10      -5.03 дБ   -19.56 дБ      6:20 07-State of Grace
DR10      -0.50 дБ   -12.99 дБ      9:36 08-Universal Mind
DR11      -0.30 дБ   -12.64 дБ     16:49 09-When the Water Breaks
DR12      -0.30 дБ   -15.09 дБ     11:31 10-Improv Jam #2
DR11      -0.30 дБ   -13.60 дБ     13:50 11-Rhapsody in Blue [George Gershwin cover]
DR15      -0.30 дБ   -19.51 дБ      3:44 12-Osmosis
DR11      -0.30 дБ   -13.28 дБ      9:31 13-Paradigm Shift
--------------------------------------------------------------------------------
Количество треков: 13
Реальные значения DR: DR11
Частота:  44100 Гц
Каналов:  2
Разрядность:   16
Битрейт:  821 кбит/с
Кодек:   FLAC
--------------------------------------------------------------------------------
Анализ:   Liquid Tension Experiment / LTE Live 2008 - LTE Bonus Disc
--------------------------------------------------------------------------------
DR         Пики          RMS        Продолжительность трека
--------------------------------------------------------------------------------
DR11      -0.36 дБ   -14.45 дБ      6:53 01-NYC (Early Show) Improv Jam #1
DR10      -1.18 дБ   -14.58 дБ      7:41 02-NYC (Early Show) Improv Jam #2
DR12      -1.70 дБ   -16.80 дБ      3:42 03-NEARfest Improv Jam #1
DR9       -1.69 дБ   -14.17 дБ      5:42 04-NEARfest Improv Jam #2
DR11      -0.45 дБ   -14.70 дБ      7:58 05-Chicago Improv Jam #1
DR10      -2.65 дБ   -15.30 дБ     10:41 06-San Francisco Improv Jam #1
DR10      -1.68 дБ   -14.78 дБ     13:16 07-San Francisco Improv Jam #2
--------------------------------------------------------------------------------
Количество треков: 7
Реальные значения DR: DR10
Частота:  44100 Гц
Каналов:  2
Разрядность:   16
Битрейт:  699 кбит/с
Кодек:   FLAC
2009 - When the Keyboard Breaks: Live in Chicago
01. Universal Mind (When the Keyboard Broke) (2:21)
02. The Chicago Blues & Noodle Factory (7:03)
03. Fade Away or Keep Going? (5:03)
04. The Haunted Keyboard (9:34)
05. Close Encounters of the Liquid Kind (15:13)
06. Ten Minute Warning (5:55)
07. That 'Ol Broken Down Keyboard Blues (6:34)
08. Liquid Anthrax (4:55)
09. That's All Folks! (2:12)
Исходное издание: Lazy Tomato Entertainment ‎– LTE001
Обработка: Проведены деклиппинг, декомпрессия, эквализация.

Спектр, АЧХ, Уровень записи, Динамический диапазон
Код:
foobar2000 1.3.19 / Замер динамического диапазона (DR) 1.1.1
Дата отчёта: 2019-02-21 15:14:49
--------------------------------------------------------------------------------
Анализ:   Liquid Trio Experiment 2 / When the Keyboard Breaks: Live in Chicago
--------------------------------------------------------------------------------
DR         Пики          RMS        Продолжительность трека
--------------------------------------------------------------------------------
DR12      -1.26 дБ   -19.24 дБ      2:21 01-Universal Mind (When the Keyboard Broke)
DR12      -0.74 дБ   -15.13 дБ      7:03 02-The Chicago Blues & Noodle Factory
DR13      -0.87 дБ   -16.34 дБ      5:03 03-Fade Away or Keep Going?
DR12      -1.71 дБ   -16.79 дБ      9:34 04-The Haunted Keyboard
DR12      -0.83 дБ   -15.41 дБ     15:13 05-Close Encounters of the Liquid Kind
DR12      -0.50 дБ   -15.20 дБ      5:55 06-Ten Minute Warning
DR12      -0.57 дБ   -14.56 дБ      6:34 07-That 'Ol Broken Down Keyboard Blues
DR13      -0.74 дБ   -15.62 дБ      4:55 08-Liquid Anthrax
DR17      -7.42 дБ   -30.27 дБ      2:12 09-That's All Folks!
--------------------------------------------------------------------------------
Количество треков: 9
Реальные значения DR: DR13
Частота:  44100 Гц
Каналов:  2
Разрядность:   16
Битрейт:  791 кбит/с
Кодек:   FLAC
Дополнительная информация
Обработка: Adobe Audition с плагинами Thimeo Stereo Tool, Fabfilter Pro-L2, Fabfilter Pro-MB, Fabfilter Pro-Q3, Voxengo Elephant, MetricHalo Tranzient Control, GoodHertz Midside 3
Мониторинг результата:
Стационарная аппаратура: NAD D 1050 + Beyerdynamic DT 990 Pro и Rotel RA-10 + Jamo C603
Мобильная аппаратура: Meizu MX2 + Sennheiser CX 980
Примечание: Деклиппинг и восстановление динамического диапазона - не панацея от некачественной записи. Целью реставрации является меньшая усталость при прослушивании, и звучание, приближенное к тому, которое задумывалось звукорежиссером, до вмешательства маркетологов.
Материалы по теме "Война громкости": 1, 2, 3, 4

Раздача Dream Theater

Другие раздачи в рамках проекта можно найти здесь
21.02.2019: Раздача переделана и преобразована в потрековую.
Download
Для скачивания .torrent файлов необходима регистрация
Сайт не распространяет и не хранит электронные версии произведений, а лишь предоставляет доступ к создаваемому пользователями каталогу ссылок на торрент-файлы, которые содержат только списки хеш-сумм
[Профиль]  [ЛС] 

Maverick67

Стаж: 10 лет 1 месяц

Сообщений: 67


Maverick67 · 27-Апр-16 22:29 (спустя 2 дня 1 час)

Лисной Йожыг, как всегда, спасибо за работу и за раздачу! Получилось хорошо. Да и музыка у них не простая довольно...
[Профиль]  [ЛС] 

PeaceHaver

Стаж: 11 лет 9 месяцев

Сообщений: 22


PeaceHaver · 10-Май-16 23:30 (спустя 13 дней, ред. 10-Май-16 23:30)

Парни, никак не могу докачать пять процентов. Где хоть один источник?
Четыре процента. Где же ты, мой герой? :-D
[Профиль]  [ЛС] 

L1ker0999

Стаж: 6 лет

Сообщений: 3


L1ker0999 · 29-Дек-16 18:20 (спустя 7 месяцев)

Что-то не так с первым диском Live in NYC. Все остальные - в порядке.
[Профиль]  [ЛС] 

Лисной Йожыг

Стаж: 10 лет 9 месяцев

Сообщений: 922

Лисной Йожыг · 30-Дек-16 11:25 (спустя 17 часов)

L1ker0999, конкретизируйте, пожалуйста. Если мой косяк - постараюсь исправить.
[Профиль]  [ЛС] 

joebwan

Стаж: 3 года 1 месяц

Сообщений: 21

joebwan · 30-Дек-16 16:48 (спустя 5 часов)

L1ker0999 писал(а):
72127739Что-то не так с первым диском
Недостаточно круглый? ))
[Профиль]  [ЛС] 

ZV2010

Стаж: 9 лет 5 месяцев

Сообщений: 14


ZV2010 · 23-Авг-17 03:19 (спустя 7 месяцев)

Большое спасибо за прекрасную музыку!
После скачивания обнаружил ошибки в названиях альбомов:
1998 - Liquid Tension Experement [declipped]
1999 - Liquid Tension Experement 2 [declipped]
Исправьте, пожалуйста.
Удачи всем!
[Профиль]  [ЛС] 

Лисной Йожыг

Стаж: 10 лет 9 месяцев

Сообщений: 922

Лисной Йожыг · 21-Фев-19 16:42 (спустя 1 год 5 месяцев)

Обновление
Раздача переделана и преобразована в потрековую.
[Профиль]  [ЛС] 
 
Ответить
Loading...
Error