[RM] [restored] [declipped] [16/44] (Heavy Metal, Thrash Metal) Metallica - 1991-2016, FLAC (tracks+.cue)

Страницы :  1, 2, 3  След.

Ответить
Автор
Сообщение

Лисной Йожыг

Стаж: 10 лет 9 месяцев

Сообщений: 922

Лисной Йожыг · 19-Май-16 22:23 (3 года 2 месяца назад, ред. 21-Дек-18 19:05)


Жанр: Heavy Metal, Thrash Metal
Год выпуска: 1991-2016
Аудио кодек: FLAC
Тип рипа: tracks+.cue
Формат раздачи: 16/44
Продолжительность: 19:37:15
Исходник для обработки: CD-дискография; HD-дискография
Обработка: Устранение клиппинга, восстановление динамического диапазона.

Studio albums
1991 - Metallica
01. Enter Sandman (5:32)
02. Sad But True (5:25)
03. Holier Than Thou (3:48)
04. The Unforgiven (6:27)
05. Wherever I May Roam (6:44)
06. Don't Tread on Me (4:00)
07. Through the Never (4:05)
08. Nothing Else Matters (6:29)
09. Of Wolf and Man (4:17)
10. The God That Failed (5:09)
11. My Friend of Misery (6:50)
12. The Struggle Within (3:54)
Исходное издание: Vertigo ‎– 510 022-2
Обработка: Проведен деклиппинг материала, приглушен рабочий барабан, исправлена пара студийных косяков (провалы громкости), проведена небольшая эквализация.

Примечание: В альбоме всегда раздражал малый барабан, буквально долбящий в уши, и скверно прописанная перкуссия. Постарался насколько возможно исправить данные косяки, бонусом, сделав чуть разборчивее бас-гитару.
Спектр, АЧХ, Уровень записи, Динамический диапазон
Код:
foobar2000 1.3.9 / Замер динамического диапазона (DR) 1.1.1
Дата отчёта: 2016-12-19 23:49:22
--------------------------------------------------------------------------------
Анализ:   Metallica / Metallica
--------------------------------------------------------------------------------
DR         Пики          RMS        Продолжительность трека
--------------------------------------------------------------------------------
DR12      -1.01 дБ   -14.49 дБ      5:32 1-Enter Sandman
DR12      -0.59 дБ   -14.41 дБ      5:25 2-Sad But True
DR12      -0.63 дБ   -13.61 дБ      3:48 3-Holier Than Thou
DR12      -1.18 дБ   -15.55 дБ      6:27 4-The Unforgiven
DR12      -0.71 дБ   -14.25 дБ      6:44 5-Wherever I May Roam
DR12      -1.15 дБ   -14.15 дБ      4:00 6-Don't Tread on Me
DR11      -0.60 дБ   -13.00 дБ      4:05 7-Through the Never
DR12      -1.63 дБ   -17.26 дБ      6:29 8-Nothing Else Matters
DR12      -0.73 дБ   -14.55 дБ      4:17 9-Of Wolf and Man
DR11      -0.75 дБ   -13.27 дБ      5:09 10-The God That Failed
DR12      -0.78 дБ   -14.53 дБ      6:50 11-My Friend of Misery
DR13      -0.60 дБ   -14.42 дБ      3:54 12-The Struggle Within
--------------------------------------------------------------------------------
Количество треков: 12
Реальные значения DR: DR12
Частота:  44100 Гц
Каналов:  2
Разрядность:   16
Битрейт:  921 кбит/с
Кодек:   FLAC
1996 - Load
01. Ain't My Bitch (5:04)
02. 2 X 4 (5:28)
03. The House Jack Built (6:39)
04. Until it Sleeps (4:30)
05. King Nothing (5:28)
06. Hero of the Day (4:22)
07. Bleeding Me (8:18)
08. Cure (4:54)
09. Poor Twisted Me (4:00)
10. Wasting My Hate (3:57)
11. Mama Said (5:20)
12. Thorn Within (5:52)
13. Ronnie (5:17)
14. The Outlaw Torn (9:49)
15. The Outlaw Torn [unencumbered by manufacturing restrictions version] [bonus track] (10:48)
Исходное издание: Blackened Recordings - Web download + Vertigo ‎– 568 271-2
Обработка: Проведен деклиппинг, небольшая декомпрессия. Дополнительно, немного повышена разборчивость записи в низкочастотном и высокочастотном диапазоне.

Примечание: 15-м треком идет вариант "The Outlaw Torn" без обрезанного соло в конце песни. Можно смело менять 14-й трек на 15-й.
Спектр, АЧХ, Уровень записи, Динамический диапазон
Код:
foobar2000 1.3.9 / Замер динамического диапазона (DR) 1.1.1
Дата отчёта: 2016-12-20 08:00:53
--------------------------------------------------------------------------------
Анализ:   Metallica / Load
--------------------------------------------------------------------------------
DR         Пики          RMS        Продолжительность трека
--------------------------------------------------------------------------------
DR10      -0.91 дБ   -13.39 дБ      5:04 1-Ain't My Bitch
DR10      -1.09 дБ   -12.86 дБ      5:28 2-2 X 4
DR11      -0.99 дБ   -13.61 дБ      6:39 3-The House Jack Built
DR10      -0.64 дБ   -13.04 дБ      4:30 4-Until it Sleeps
DR11      -0.67 дБ   -13.30 дБ      5:28 5-King Nothing
DR10      -1.11 дБ   -14.40 дБ      4:22 6-Hero of the Day
DR11      -0.68 дБ   -14.74 дБ      8:18 7-Bleeding Me
DR11      -0.62 дБ   -13.63 дБ      4:54 8-Cure
DR12      -0.64 дБ   -14.43 дБ      4:00 9-Poor Twisted Me
DR12      -0.50 дБ   -14.08 дБ      3:57 10-Wasting My Hate
DR12      -0.95 дБ   -16.01 дБ      5:20 11-Mama Said
DR11      -0.86 дБ   -13.75 дБ      5:52 12-Thorn Within
DR12      -0.99 дБ   -14.73 дБ      5:17 13-Ronnie
DR11      -0.87 дБ   -14.48 дБ      9:49 14-The Outlaw Torn
DR11      -0.50 дБ   -13.37 дБ     10:48 15-The Outlaw Torn [unencumbered by manufacturing restrictions version] [bonus track]
--------------------------------------------------------------------------------
Количество треков: 15
Реальные значения DR: DR11
Частота:  44100 Гц
Каналов:  2
Разрядность:   16
Битрейт:  916 кбит/с
Кодек:   FLAC
1997 - Reload
01. Fuel (4:29)
02. The Memory Remains [feat. Marianne Faithfull] (4:39)
03. Devil's Dance (5:19)
04. The Unforgiven II (6:36)
05. Better Than You (5:22)
06. Slither (5:13)
07. Carpe Diem Baby (6:12)
08. Bad Seed (4:05)
09. Where the Wild Things Are (6:54)
10. Prince Charming (6:05)
11. Low Man's Lyric (7:37)
12. Attitude (5:16)
13. Fixxxer (8:15)
Исходное издание: Blackened Recordings - Web download
Обработка:

Примечание: В отличии от мастеринга Load (как CD, так и HD), при мастеринге уже применялась обработка клипированных участков, в связи с чем, "грязи" в записе стало больше. Насколько хватило знаний, почистил материал.
Спектр, АЧХ, Уровень записи, Динамический диапазон
Код:
foobar2000 1.3.9 / Замер динамического диапазона (DR) 1.1.1
Дата отчёта: 2016-12-20 08:18:51
--------------------------------------------------------------------------------
Анализ:   Metallica / Reload
--------------------------------------------------------------------------------
DR         Пики          RMS        Продолжительность трека
--------------------------------------------------------------------------------
DR10      -0.79 дБ   -12.38 дБ      4:29 1-Fuel
DR11      -0.61 дБ   -12.80 дБ      4:39 2-The Memory Remains [feat. Marianne Faithfull]
DR11      -0.64 дБ   -13.51 дБ      5:19 3-Devil's Dance
DR11      -0.77 дБ   -13.71 дБ      6:36 4-The Unforgiven II
DR11      -0.89 дБ   -13.26 дБ      5:22 5-Better Than You
DR11      -0.97 дБ   -12.81 дБ      5:13 6-Slither
DR10      -0.80 дБ   -12.34 дБ      6:12 7-Carpe Diem Baby
DR11      -0.86 дБ   -13.13 дБ      4:05 8-Bad Seed
DR10      -0.50 дБ   -12.50 дБ      6:54 9-Where the Wild Things Are
DR11      -0.51 дБ   -12.50 дБ      6:05 10-Prince Charming
DR11      -0.69 дБ   -15.18 дБ      7:37 11-Low Man's Lyric
DR11      -0.71 дБ   -13.02 дБ      5:16 12-Attitude
DR11      -0.72 дБ   -13.52 дБ      8:15 13-Fixxxer
--------------------------------------------------------------------------------
Количество треков: 13
Реальные значения DR: DR11
Частота:  44100 Гц
Каналов:  2
Разрядность:   16
Битрейт:  918 кбит/с
Кодек:   FLAC
1998 - Garage Inc.
01. Free Speech for the Dumb [Discharge cover] (2:36)
02. It's Electric [Diamond Head cover] (3:34)
03. Sabbra Cadabra [Black Sabbath cover] (6:20)
04. Turn the Page [Bob Seger cover] (6:06)
05. Die, Die My Darling [Misfits cover] (2:29)
06. Loverman [Nick Cave and the Bad Seeds cover] (7:53)
07. Mercyful Fate [Mercyful Fate cover, medley] (11:12)
08. Astronomy [Blue Öyster Cult cover] (6:38)
09. Whiskey in the Jar [The Dubliners/Thin Lizzy cover] (5:05)
10. Tuesday's Gone [Lynyrd Skynyrd cover] (9:06)
11. The More I See [Discharge cover] (4:49)
12. Helpless [Diamond Head cover] (6:38)
13. The Small Hours [Holocaust cover] (6:43)
14. The Wait [Killing Joke cover] (4:55)
15. Crash Course in Brain Surgery [Budgie cover] (3:10)
16. Last Caress/Green Hell [Misfits cover] (3:30)
17. Am I Evil? [Diamond Head cover] (7:50)
18. Blitzkreig [Blitzkrieg cover] (3:37)
19. Breadfan [Budgie cover] (5:41)
20. The Prince [Diamond Head cover] (4:26)
21. Stone Cold Crazy [Queen cover] (2:18)
22. So What? [Anti-Nowhere League cover] (3:09)
23. Killing Time [Sweet Savage cover] (3:04)
24. Overkill [Motörhead cover] (4:05)
25. Damage Case [Motörhead cover] (3:40)
26. Stone Dead Forever [Motörhead cover] (4:52)
27. Too Late Too Late [Motörhead cover] (3:12)
Исходное издание: Elektra ‎– 62299-2
Обработка: Проведены деклиппинг и декомпрессия. Поправлена пара студийных косяков (провалы громкости). Исправлена громкость пары треков (были тише основного материала).
Спектр, АЧХ, Уровень записи, Динамический диапазон
Код:
foobar2000 1.3.9 / Замер динамического диапазона (DR) 1.1.1
Дата отчёта: 2016-12-20 08:50:19
--------------------------------------------------------------------------------
Анализ:   Metallica / Garage Inc.
--------------------------------------------------------------------------------
DR         Пики          RMS        Продолжительность трека
--------------------------------------------------------------------------------
DR11      -1.88 дБ   -13.11 дБ      2:36 1-Free Speech for the Dumb [Discharge cover]
DR10      -0.79 дБ   -12.59 дБ      3:34 2-It's Electric [Diamond Head cover]
DR11      -0.78 дБ   -13.55 дБ      6:20 3-Sabbra Cadabra [Black Sabbath cover]
DR11      -1.15 дБ   -13.42 дБ      6:06 4-Turn the Page [Bob Seger cover]
DR10      -0.70 дБ   -12.07 дБ      2:29 5-Die, Die My Darling [Misfits cover]
DR11      -0.66 дБ   -15.33 дБ      7:53 6-Loverman [Nick Cave and the Bad Seeds cover]
DR11      -1.04 дБ   -12.93 дБ     11:12 7-Mercyful Fate [Mercyful Fate cover, medley]
DR11      -0.63 дБ   -15.15 дБ      6:38 8-Astronomy [Blue Öyster Cult cover]
DR12      -0.50 дБ   -13.17 дБ      5:05 9-Whiskey in the Jar [The Dubliners/Thin Lizzy cover]
DR12      -0.92 дБ   -15.18 дБ      9:06 10-Tuesday's Gone [Lynyrd Skynyrd cover]
DR12      -0.52 дБ   -14.08 дБ      4:49 11-The More I See [Discharge cover]
DR12      -0.88 дБ   -14.22 дБ      6:38 12-Helpless [Diamond Head cover]
DR12      -0.50 дБ   -13.98 дБ      6:43 13-The Small Hours [Holocaust cover]
DR12      -0.56 дБ   -13.64 дБ      4:55 14-The Wait [Killing Joke cover]
DR12      -0.55 дБ   -13.91 дБ      3:10 15-Crash Course in Brain Surgery [Budgie cover]
DR12      -0.71 дБ   -13.50 дБ      3:30 16-Last Caress/Green Hell [Misfits cover]
DR12      -0.66 дБ   -13.79 дБ      7:50 17-Am I Evil? [Diamond Head cover]
DR11      -0.65 дБ   -13.49 дБ      3:37 18-Blitzkreig [Blitzkrieg cover]
DR11      -0.88 дБ   -13.76 дБ      5:41 19-Breadfan [Budgie cover]
DR11      -0.66 дБ   -12.68 дБ      4:26 20-The Prince [Diamond Head cover]
DR11      -0.91 дБ   -13.04 дБ      2:18 21-Stone Cold Crazy [Queen cover]
DR10      -0.90 дБ   -12.39 дБ      3:09 22-So What? [Anti-Nowhere League cover]
DR12      -0.89 дБ   -14.04 дБ      3:04 23-Killing Time [Sweet Savage cover]
DR11      -1.04 дБ   -12.99 дБ      4:05 24-Overkill [Motörhead cover]
DR12      -0.73 дБ   -13.59 дБ      3:40 25-Damage Case [Motörhead cover]
DR11      -0.67 дБ   -13.56 дБ      4:52 26-Stone Dead Forever [Motörhead cover]
DR11      -0.77 дБ   -13.52 дБ      3:12 27-Too Late Too Late [Motörhead cover]
--------------------------------------------------------------------------------
Количество треков: 27
Реальные значения DR: DR11
Частота:  44100 Гц
Каналов:  2
Разрядность:   16
Битрейт:  992 кбит/с
Кодек:   FLAC
2003 - St. Anger
01. Frantic (5:50)
02. St. Anger (7:21)
03. Some Kind of Monster (8:26)
04. Dirty Window (5:25)
05. Invisible Kid (8:30)
06. My World (5:46)
07. Shoot me Again (7:10)
08. Sweet Amber (5:27)
09. The Unnamed Feeling (7:09)
10. Purify (5:14)
11. All Within my Hands (8:48)
Исходное издание: Blackened Recordings - Web download
Обработка: Проведены деклиппинг и декомпрессия. Проведена легкая реставрация высокочастотной составляющей и небольшая эквализация. Немного почищен бас. Проведен анмикс малого барабана.

Примечание: Визитная карточка Ларса - кастрюльки... Постарался сделать их не такими язвительно звучащими.
Спектр, АЧХ, Уровень записи, Динамический диапазон
Код:
foobar2000 1.3.9 / Замер динамического диапазона (DR) 1.1.1
Дата отчёта: 2016-12-20 09:00:41
--------------------------------------------------------------------------------
Анализ:   Metallica / St. Anger
--------------------------------------------------------------------------------
DR         Пики          RMS        Продолжительность трека
--------------------------------------------------------------------------------
DR10      -1.02 дБ   -12.31 дБ      5:50 1-Frantic
DR11      -0.88 дБ   -12.56 дБ      7:21 2-St. Anger
DR11      -0.63 дБ   -12.90 дБ      8:26 3-Some Kind of Monster
DR11      -0.74 дБ   -13.27 дБ      5:25 4-Dirty Window
DR11      -1.24 дБ   -13.01 дБ      8:30 5-Invisible Kid
DR10      -0.50 дБ   -11.91 дБ      5:46 6-My World
DR11      -1.11 дБ   -13.30 дБ      7:10 7-Shoot me Again
DR10      -1.40 дБ   -12.71 дБ      5:27 8-Sweet Amber
DR10      -0.88 дБ   -12.78 дБ      7:09 9-The Unnamed Feeling
DR11      -0.94 дБ   -12.53 дБ      5:14 10-Purify
DR10      -0.68 дБ   -11.81 дБ      8:48 11-All Within my Hands
--------------------------------------------------------------------------------
Количество треков: 11
Реальные значения DR: DR10
Частота:  44100 Гц
Каналов:  2
Разрядность:   16
Битрейт:  872 кбит/с
Кодек:   FLAC
2008 - Death Magnetic
01. That Was Just Your Life (7:08)
02. The End of the Line (7:52)
03. Broken, Beat & Scarred (6:25)
04. The Day That Never Comes (7:56)
05. All Nightmare Long (7:58)
06. Cyanide (6:40)
07. The Unforgiven III (7:47)
08. The Judas Kiss (8:01)
09. Suicide & Redemption (9:58)
10. My Apocalypse (5:01)
Исходное издание: Blackened Recordings - Web download
Обработка: Проведены деклиппинг и декомпрессия. Проведен анмикс ударных, эквализирована перкуссия, и бочка. Проведена реставрация низкочастотной составляющей. Немного почищен дисторшн гитар.

Примечание: Визитная карточка Грега Фидельмана, достойная первого места в его портфолио.
Спектр, АЧХ, Уровень записи, Динамический диапазон
Код:
foobar2000 1.3.9 / Замер динамического диапазона (DR) 1.1.1
Дата отчёта: 2016-12-20 20:26:30
--------------------------------------------------------------------------------
Анализ:   Metallica / Death Magnetic
--------------------------------------------------------------------------------
DR         Пики          RMS        Продолжительность трека
--------------------------------------------------------------------------------
DR11      -0.50 дБ   -13.82 дБ      7:08 1-That Was Just Your Life
DR11      -0.65 дБ   -13.95 дБ      7:52 2-The End of the Line
DR11      -0.75 дБ   -13.41 дБ      6:25 3-Broken, Beat & Scarred
DR11      -0.94 дБ   -13.55 дБ      7:56 4-The Day That Never Comes
DR11      -0.91 дБ   -13.07 дБ      7:58 5-All Nightmare Long
DR11      -0.50 дБ   -13.26 дБ      6:40 6-Cyanide
DR10      -0.69 дБ   -13.09 дБ      7:47 7-The Unforgiven III
DR10      -1.00 дБ   -12.40 дБ      8:01 8-The Judas Kiss
DR10      -0.81 дБ   -12.53 дБ      9:58 9-Suicide & Redemption
DR11      -0.50 дБ   -12.72 дБ      5:01 10-My Apocalypse
--------------------------------------------------------------------------------
Количество треков: 10
Реальные значения DR: DR11
Частота:  44100 Гц
Каналов:  2
Разрядность:   16
Битрейт:  946 кбит/с
Кодек:   FLAC
2016 - Hardwired... to Self-Destruct
01. Hardwired (3:09)
02. Atlas Rise! (6:29)
03. Now That Were Dead (6:59)
04. Moth Into Flame (5:51)
05. Dream no More (6:30)
06. Halo on Fire (8:15)
07. Confusion (6:41)
08. ManUNkind (6:56)
09. Here Comes Revenge (7:18)
10. Am I Savage? (6:30)
11. Murder One (5:45)
12. Spit Out the Bone (7:09)
13. Lords of Summer [bonus track] (7:10)
14. Ronnie Rising Medley [medley of Rainbow covers] [bonus track] (9:03)
15. When a Blind Man Cries [Deep Purple cover] [bonus track] (4:35)
16. Remember Tomorrow [Iron Maiden cover] [bonus track] (5:50)
Исходное издание: Blackened Recordings - Web download
Обработка: Проведены деклиппинг и декомпрессия. В некоторых треках проведен анмикс ударных, эквализирована бочка. Проведена реставрация низкочастотной составляющей.

Примечание: Несмотря на то, что мастеринг по громкости не сильно отличается от других альбомов, пришлось изрядно повозиться с материалом. Видимо, песни сводились в разное время, т.к. все 3 диска по-разному звучат.
Спектр, АЧХ, Уровень записи, Динамический диапазон
Код:
foobar2000 1.3.9 / Замер динамического диапазона (DR) 1.1.1
Дата отчёта: 2016-12-20 20:27:37
--------------------------------------------------------------------------------
Анализ:   Metallica / Hardwired... to Self-Destruct
--------------------------------------------------------------------------------
DR         Пики          RMS        Продолжительность трека
--------------------------------------------------------------------------------
DR10      -0.87 дБ   -12.28 дБ      3:09 1-Hardwired
DR10      -0.80 дБ   -11.94 дБ      6:29 2-Atlas Rise!
DR11      -0.46 дБ   -12.53 дБ      6:59 3-Now That Were Dead
DR11      -0.69 дБ   -12.29 дБ      5:51 4-Moth Into Flame
DR10      -0.79 дБ   -12.31 дБ      6:30 5-Dream no More
DR11      -0.73 дБ   -12.94 дБ      8:15 6-Halo on Fire
DR11      -0.50 дБ   -12.04 дБ      6:41 7-Confusion
DR11      -0.65 дБ   -12.48 дБ      6:56 8-ManUNkind
DR11      -0.57 дБ   -12.24 дБ      7:18 9-Here Comes Revenge
DR10      -0.68 дБ   -12.17 дБ      6:30 10-Am I Savage?
DR11      -0.73 дБ   -12.64 дБ      5:45 11-Murder One
DR11      -0.62 дБ   -12.25 дБ      7:09 12-Spit Out the Bone
DR11      -0.54 дБ   -12.52 дБ      7:10 13-Lords of Summer [bonus track]
DR11      -0.69 дБ   -12.91 дБ      9:03 14-Ronnie Rising Medley [medley of Rainbow covers] [bonus track]
DR10      -0.64 дБ   -14.39 дБ      4:35 15-When a Blind Man Cries [Deep Purple cover] [bonus track]
DR11      -0.82 дБ   -13.73 дБ      5:50 16-Remember Tomorrow [Iron Maiden cover] [bonus track]
--------------------------------------------------------------------------------
Количество треков: 16
Реальные значения DR: DR11
Частота:  44100 Гц
Каналов:  2
Разрядность:   16
Битрейт:  975 кбит/с
Кодек:   FLAC
Collaboration
1999 - S&M
01. The Ecstasy of Gold (2:31)
02. The Call of the Ktulu (9:34)
03. Master of Puppets (8:55)
04. Of Wolf and Man (4:19)
05. The Thing That Should Not Be (7:27)
06. Fuel (4:36)
07. The Memory Remains (4:42)
08. No Leaf Clover [previously unreleased] (5:43)
09. Hero of the Day (4:45)
10. Devil's Dance (5:26)
11. Bleeding Me (9:02)
12. Nothing Else Matters (6:48)
13. Until it Sleeps (4:30)
14. For Whom the Bell Tolls (4:52)
15. - Human [previously unreleased] (4:20)
16. Wherever I May Roam (7:01)
17. Outlaw Torn (9:59)
18. Sad But True (5:46)
19. One (7:53)
20. Enter Sandman (7:39)
21. Battery (7:25)
Исходное издание: Vertigo ‎– 546 797-2
Обработка: Проведен деклиппинг и декомпрессия материала.
Спектр, АЧХ, Уровень записи, Динамический диапазон
Код:
foobar2000 1.3.9 / Замер динамического диапазона (DR) 1.1.1
Дата отчёта: 2016-12-20 20:48:39
--------------------------------------------------------------------------------
Анализ:   Metallica / S&M
--------------------------------------------------------------------------------
DR         Пики          RMS        Продолжительность трека
--------------------------------------------------------------------------------
DR11      -2.88 дБ   -19.51 дБ      2:31 1-The Ecstasy of Gold
DR12      -0.82 дБ   -14.74 дБ      9:34 2-The Call of the Ktulu
DR11      -0.67 дБ   -12.83 дБ      8:55 3-Master of Puppets
DR12      -0.75 дБ   -13.69 дБ      4:19 4-Of Wolf and Man
DR11      -1.27 дБ   -14.27 дБ      7:27 5-The Thing That Should Not Be
DR11      -0.82 дБ   -13.27 дБ      4:36 6-Fuel
DR12      -0.71 дБ   -14.39 дБ      4:42 7-The Memory Remains
DR13      -0.75 дБ   -15.42 дБ      5:43 8-No Leaf Clover [previously unreleased]
DR11      -1.16 дБ   -15.39 дБ      4:45 9-Hero of the Day
DR12      -0.50 дБ   -13.29 дБ      5:26 10-Devil's Dance
DR12      -1.17 дБ   -14.96 дБ      9:02 11-Bleeding Me
DR12      -0.85 дБ   -16.43 дБ      6:48 12-Nothing Else Matters
DR11      -0.70 дБ   -13.57 дБ      4:30 13-Until it Sleeps
DR12      -0.62 дБ   -13.48 дБ      4:52 14-For Whom the Bell Tolls
DR12      -0.55 дБ   -14.26 дБ      4:20 15-- Human [previously unreleased]
DR12      -0.50 дБ   -13.50 дБ      7:01 16-Wherever I May Roam
DR11      -0.65 дБ   -13.91 дБ      9:59 17-Outlaw Torn
DR12      -0.69 дБ   -13.76 дБ      5:46 18-Sad But True
DR12      -0.57 дБ   -14.46 дБ      7:53 19-One
DR11      -0.67 дБ   -14.07 дБ      7:39 20-Enter Sandman
DR11      -0.64 дБ   -14.08 дБ      7:25 21-Battery
--------------------------------------------------------------------------------
Количество треков: 21
Реальные значения DR: DR12
Частота:  44100 Гц
Каналов:  2
Разрядность:   16
Битрейт:  921 кбит/с
Кодек:   FLAC
2011 - Lulu
01. Brandenburg Gate (4:22)
02. The View (5:21)
03. Pumping Blood (7:24)
04. Mistress Dread (6:53)
05. Iced Honey (4:38)
06. Cheat on Me (11:26)
07. Frustation (8:34)
08. Little Dog (8:02)
09. Dragon (11:10)
10. Junior Dad (19:29)
Исходное издание: Vertigo ‎– 546 797-2
Обработка: Проведен деклиппинг и декомпрессия материала.
Спектр, АЧХ, Уровень записи, Динамический диапазон
Код:
foobar2000 1.3.9 / Замер динамического диапазона (DR) 1.1.1
Дата отчёта: 2016-12-20 20:53:51
--------------------------------------------------------------------------------
Анализ:   Lou Reed & Metallica / Lulu
--------------------------------------------------------------------------------
DR         Пики          RMS        Продолжительность трека
--------------------------------------------------------------------------------
DR10      -1.27 дБ   -13.68 дБ      4:22 1-Brandenburg Gate
DR11      -0.82 дБ   -12.83 дБ      5:21 2-The View
DR11      -1.09 дБ   -13.97 дБ      7:24 3-Pumping Blood
DR11      -1.28 дБ   -13.47 дБ      6:53 4-Mistress Dread
DR12      -0.74 дБ   -13.31 дБ      4:38 5-Iced Honey
DR11      -0.50 дБ   -14.83 дБ     11:26 6-Cheat on Me
DR11      -0.53 дБ   -14.19 дБ      8:34 7-Frustation
DR15      -5.11 дБ   -23.93 дБ      8:02 8-Little Dog
DR11      -0.50 дБ   -13.47 дБ     11:10 9-Dragon
DR13      -0.81 дБ   -17.31 дБ     19:29 10-Junior Dad
--------------------------------------------------------------------------------
Количество треков: 10
Реальные значения DR: DR12
Частота:  44100 Гц
Каналов:  2
Разрядность:   16
Битрейт:  732 кбит/с
Кодек:   FLAC
Live
1993 - Live Shit: Binge & Purge
01. The Ecstasy of Gold / Enter Sandman (7:28)
02. Creeping Death (7:28)
03. Harvester of Sorrow (7:19)
04. Welcome Home (Sanitarium) (6:39)
05. Sad But True (6:07)
06. Of Wolf and Man (6:22)
07. The Unforgiven (6:48)
08. Justice Medley (9:38)
09. Solos (Bass/Guitar) (18:49)
10. Through the Never (3:47)
11. For Whom the Bell Tolls (5:48)
12. Fade to Black (7:12)
13. Master of Puppets (4:35)
14. Seek & Destroy (18:08)
15. Whiplash (5:34)
16. Nothing Else Matters (6:22)
17. Wherever I May Roam (6:33)
18. Am I Evil? [Diamond Head cover] (5:42)
19. Last Caress [Misfits cover] (1:25)
20. One (10:27)
21. So What? / Battery [So What? - Anti-Nowhere League cover] (10:05)
22. The Four Horsemen (6:08)
23. Motorbreath (3:14)
24. Stone Cold Crazy [Queen cover] (5:32)
Исходное издание: Elektra ‎– 61594-2
Обработка: Проведен деклиппинг материала.
Спектр, АЧХ, Уровень записи, Динамический диапазон
Код:
foobar2000 1.3.9 / Замер динамического диапазона (DR) 1.1.1
Дата отчёта: 2016-12-20 22:07:21
--------------------------------------------------------------------------------
Анализ:   Metallica / Live Shit: Binge & Purge
--------------------------------------------------------------------------------
DR         Пики          RMS        Продолжительность трека
--------------------------------------------------------------------------------
DR11      -0.92 дБ   -14.09 дБ      7:28 1-The Ecstasy of Gold / Enter Sandman
DR11      -1.31 дБ   -13.41 дБ      7:28 2-Creeping Death
DR12      -1.15 дБ   -14.57 дБ      7:19 3-Harvester of Sorrow
DR11      -1.50 дБ   -13.91 дБ      6:39 4-Welcome Home (Sanitarium)
DR12      -0.50 дБ   -13.61 дБ      6:07 5-Sad But True
DR11      -1.20 дБ   -13.96 дБ      6:22 6-Of Wolf and Man
DR12      -1.25 дБ   -15.05 дБ      6:48 7-The Unforgiven
DR11      -0.92 дБ   -13.38 дБ      9:38 8-Justice Medley
DR12      -1.42 дБ   -18.81 дБ     18:49 9-Solos (Bass/Guitar)
DR11      -0.81 дБ   -13.43 дБ      3:47 10-Through the Never
DR12      -1.46 дБ   -14.39 дБ      5:48 11-For Whom the Bell Tolls
DR11      -1.29 дБ   -15.05 дБ      7:12 12-Fade to Black
DR11      -0.72 дБ   -13.89 дБ      4:35 13-Master of Puppets
DR12      -0.50 дБ   -13.33 дБ     18:08 14-Seek & Destroy
DR12      -1.07 дБ   -14.44 дБ      5:34 15-Whiplash
DR12      -0.94 дБ   -15.44 дБ      6:22 16-Nothing Else Matters
DR11      -0.50 дБ   -12.88 дБ      6:33 17-Wherever I May Roam
DR12      -0.62 дБ   -14.25 дБ      5:42 18-Am I Evil? [Diamond Head cover]
DR11      -0.82 дБ   -13.39 дБ      1:25 19-Last Caress [Misfits cover]
DR11      -0.84 дБ   -14.28 дБ     10:27 20-One
DR11      -0.52 дБ   -13.56 дБ     10:05 21-So What? / Battery [So What? - Anti-Nowhere League cover]
DR11      -0.82 дБ   -13.73 дБ      6:08 22-The Four Horsemen
DR11      -0.74 дБ   -12.87 дБ      3:14 23-Motorbreath
DR11      -0.83 дБ   -13.79 дБ      5:32 24-Stone Cold Crazy [Queen cover]
--------------------------------------------------------------------------------
Количество треков: 24
Реальные значения DR: DR11
Частота:  44100 Гц
Каналов:  2
Разрядность:   16
Битрейт:  941 кбит/с
Кодек:   FLAC
2013 - Through the Never
01. The Ecstasy of Gold (2:01)
02. Creeping Death (6:19)
03. For Whom the Bell Tolls (4:40)
04. Fuel (3:57)
05. Ride the Lightning (6:54)
06. One (8:25)
07. The Memory Remains (5:43)
08. Wherever I May Roam (6:18)
09. Cyanide (7:01)
10. ... And Justice for All (9:18)
11. Master of Puppets (8:25)
12. Battery (5:14)
13. Nothing Else Matters (7:22)
14. Enter Sandman (6:22)
15. Hit the Lights (4:40)
16. Orion (8:27)
Исходное издание: Blackened Recordings ‎– BLCKND021-2
Обработка: Проведены деклиппинг и декомпрессия материала.
Спектр, АЧХ, Уровень записи, Динамический диапазон
Код:
foobar2000 1.3.9 / Замер динамического диапазона (DR) 1.1.1
Дата отчёта: 2016-12-20 22:11:49
--------------------------------------------------------------------------------
Анализ:   Metallica / Through the Never
--------------------------------------------------------------------------------
DR         Пики          RMS        Продолжительность трека
--------------------------------------------------------------------------------
DR10      -1.67 дБ   -15.30 дБ      2:01 1-The Ecstasy of Gold
DR10      -1.47 дБ   -13.57 дБ      6:19 2-Creeping Death
DR11      -2.06 дБ   -14.86 дБ      4:40 3-For Whom the Bell Tolls
DR11      -2.00 дБ   -14.26 дБ      3:57 4-Fuel
DR12      -0.73 дБ   -14.33 дБ      6:54 5-Ride the Lightning
DR12      -0.50 дБ   -16.12 дБ      8:25 6-One
DR11      -1.43 дБ   -15.34 дБ      5:43 7-The Memory Remains
DR11      -0.90 дБ   -13.29 дБ      6:18 8-Wherever I May Roam
DR11      -0.77 дБ   -13.92 дБ      7:01 9-Cyanide
DR12      -1.49 дБ   -14.51 дБ      9:18 10-... And Justice for All
DR11      -1.46 дБ   -14.77 дБ      8:25 11-Master of Puppets
DR11      -1.52 дБ   -14.97 дБ      5:14 12-Battery
DR11      -0.50 дБ   -15.19 дБ      7:22 13-Nothing Else Matters
DR11      -0.77 дБ   -14.45 дБ      6:22 14-Enter Sandman
DR12      -1.06 дБ   -15.19 дБ      4:40 15-Hit the Lights
DR12      -1.51 дБ   -15.11 дБ      8:27 16-Orion
--------------------------------------------------------------------------------
Количество треков: 16
Реальные значения DR: DR11
Частота:  44100 Гц
Каналов:  2
Разрядность:   16
Битрейт:  899 кбит/с
Кодек:   FLAC
Singles & EP
2000 - I Disappear
01. I Disappear (4:27)
Исходное издание: Hollywood Records ‎– PRCD-11243-2
Обработка: Проведен деклиппинг и декомпрессия материала.
Спектр, АЧХ, Уровень записи, Динамический диапазон
Код:
foobar2000 1.3.9 / Замер динамического диапазона (DR) 1.1.1
Дата отчёта: 2016-12-20 22:18:34
--------------------------------------------------------------------------------
Статистика для:  1-I Disappear
Количество сэмплов: 11758236
Продолжительность: 4:27
--------------------------------------------------------------------------------
           Левый             Правый
Пики:       -0.70 дБ     ---     -0.50 дБ
Средний RMS:     -13.24 дБ     ---    -13.67 дБ
DR канала:      10.98 дБ     ---     11.35 дБ
--------------------------------------------------------------------------------
Реальные значения DR: DR11
Частота:  44100 Гц
Каналов:  2
Разрядность:   16
Битрейт:  953 кбит/с
Кодек:   FLAC
2003 - St. Anger
01. St. Anger (7:23)
02. Commando [Ramones cover] (1:48)
03. Today Your Love, Tomorrow the World [Ramones cover] (2:13)
04. Now I Wanna Sniff Some Glue [Ramones cover] (1:39)
05. We're a Happy Family [Ramones cover] (2:20)
06. Cretin Hop [Ramones cover] (1:56)
Исходное издание: Sony Music Japan International Inc. ‎– SICP 371 + Vertigo ‎– 9865409
Обработка: Проведен деклиппинг и декомпрессия материала.
Спектр, АЧХ, Уровень записи, Динамический диапазон
Код:
foobar2000 1.3.9 / Замер динамического диапазона (DR) 1.1.1
Дата отчёта: 2016-12-20 22:48:03
--------------------------------------------------------------------------------
Анализ:   Metallica / St. Anger
--------------------------------------------------------------------------------
DR         Пики          RMS        Продолжительность трека
--------------------------------------------------------------------------------
DR11      -0.50 дБ   -12.21 дБ      7:23 1-St. Anger
DR10      -0.56 дБ   -11.08 дБ      1:48 2-Commando [Ramones cover]
DR10      -0.50 дБ   -11.07 дБ      2:13 3-Today Your Love, Tomorrow the World [Ramones cover]
DR10      -0.50 дБ   -12.75 дБ      1:39 4-Now I Wanna Sniff Some Glue [Ramones cover]
DR9       -0.69 дБ   -11.74 дБ      2:20 5-We're a Happy Family [Ramones cover]
DR10      -0.50 дБ   -11.67 дБ      1:56 6-Cretin Hop [Ramones cover]
--------------------------------------------------------------------------------
Количество треков: 6
Реальные значения DR: DR10
Частота:  44100 Гц
Каналов:  2
Разрядность:   16
Битрейт:  887 кбит/с
Кодек:   FLAC
2012 - Beyond Magnetic
01. Hate Train (6:59)
02. Just a Bullet Away (7:11)
03. Hell and Back (6:58)
04. Rebel of Babylon (8:02)
Исходное издание: Blackened Recordings - Web download
Обработка: Проведены деклиппинг и декомпрессия. Проведен анмикс ударных, эквализирована перкуссия, и бочка. Проведена реставрация низкочастотной составляющей.
Спектр, АЧХ, Уровень записи, Динамический диапазон
Код:
foobar2000 1.3.9 / Замер динамического диапазона (DR) 1.1.1
Дата отчёта: 2016-12-20 22:30:16
--------------------------------------------------------------------------------
Анализ:   Metallica / Beyond Magnetic
--------------------------------------------------------------------------------
DR         Пики          RMS        Продолжительность трека
--------------------------------------------------------------------------------
DR10      -1.12 дБ   -12.73 дБ      6:59 1-Hate Train
DR11      -0.50 дБ   -13.01 дБ      7:11 2-Just a Bullet Away
DR10      -1.45 дБ   -14.00 дБ      6:58 3-Hell and Back
DR11      -0.54 дБ   -13.18 дБ      8:02 4-Rebel of Babylon
--------------------------------------------------------------------------------
Количество треков: 4
Реальные значения DR: DR11
Частота:  44100 Гц
Каналов:  2
Разрядность:   16
Битрейт:  957 кбит/с
Кодек:   FLAC
Misc.
Внеальбомные композиции
53rd & 3rd [Ramones cover] (2:21)
The Ecstasy of Gold [Ennio Morricone cover] (3:50)
You Really Got Me [feat. Ray Davies] [The Kinks cover] (2:15)
Обработка: Проведены деклиппинг и декомпрессия материала.
Примечание: Данные треки взяты из разных мест. В тегах указана дополнительная информация.
Дополнительная информация
Обработка: Adobe Audition с плагинами Perfect Declipper, Delossifier, Noise Removal, Azimuth Correction, Acon Digital DeClip, Fabfilter Pro-L, Flux:: Pure DCompressor, Zynaptiq Unchirp, Zynaptiq Unfilter, Zynaptiq Unmix Drums.
Мониторинг результата:
Стационарная аппаратура: NAD D 1050 + Beyerdynamic DT 990 Pro и Rotel RA-10 + Jamo C603
Мобильная аппаратура: Meizu MX2 + Sennheiser CX 980
Примечание: Деклиппинг и восстановление динамического диапазона - не панацея от некачественной записи. Целью реставрации является меньшая усталость при прослушивании, и звучание, приближенное к тому, которое задумывалось звукорежиссером, до вмешательства маркетологов.
Материалы по теме "Война громкости": 1, 2, 3, 4

Другие раздачи в рамках проекта можно найти здесь
21.12.2016: Раздача полностью переделана. Добавлены альбомы "Hardwired...to Self-Destruct", "Lulu", "Live Shit: Binge & Purge", сингл "St. Anger".
05.10.2017: Исправлен трек в альбоме "Garage Inc.", добавлена папка "Разное" с тремя треками.
Download
Для скачивания .torrent файлов необходима регистрация
Сайт не распространяет и не хранит электронные версии произведений, а лишь предоставляет доступ к создаваемому пользователями каталогу ссылок на торрент-файлы, которые содержат только списки хеш-сумм
[Профиль]  [ЛС] 

Лисной Йожыг

Стаж: 10 лет 9 месяцев

Сообщений: 922

Лисной Йожыг · 20-Май-16 10:51 (спустя 12 часов)

forgetaboutit, пожалуйста.
У остальных хайрезов уровень компрессии выше, чем на CD-первопрессах, а DM в хайрезе - единственный, из встретившихся релизов, у которого сигнал не зашкален, как на CD или виниле. В связи с этим, я не видел никакого смысла брать HD-издания предыдущих альбомов для обработки.
[Профиль]  [ЛС] 

arbeit macht frei

Стаж: 7 лет 4 месяца

Сообщений: 18


arbeit macht frei · 19-Июн-16 22:57 (спустя 30 дней)

Ув. Лисной Йожыг, скажите пожалуйста, какой из релизов Металлики 91 года использовался вами: немецкий 91 года, британский 91 года, или какой-то более поздний вариант?
[Профиль]  [ЛС] 

Лисной Йожыг

Стаж: 10 лет 9 месяцев

Сообщений: 922

Лисной Йожыг · 19-Июн-16 23:17 (спустя 19 мин.)

arbeit macht frei, за основу взят британский первопресс. Между изданиями с каталожным номером 510 022-2 не может быть никаких различий в звуке, разница только в обложках.
[Профиль]  [ЛС] 

arbeit macht frei

Стаж: 7 лет 4 месяца

Сообщений: 18


arbeit macht frei · 19-Июн-16 23:20 (спустя 3 мин.)

Благодарю вас за ответ и за ваши труды.
[Профиль]  [ЛС] 

Лисной Йожыг

Стаж: 10 лет 9 месяцев

Сообщений: 922

Лисной Йожыг · 19-Июн-16 23:24 (спустя 3 мин.)

Спасибо за отзыв и приятного прослушивания
[Профиль]  [ЛС] 

terrano1988

Стаж: 9 лет 7 месяцев

Сообщений: 212

terrano1988 · 24-Июл-16 10:40 (спустя 1 месяц 4 дня)

благодарствую за труд! качаю, послушаю результат!
[Профиль]  [ЛС] 

BEFFECT

Стаж: 11 лет 2 месяца

Сообщений: 39

BEFFECT · 26-Авг-16 13:18 (спустя 1 месяц 2 дня)

Что тут слушать?
Надо Улриху сразу отправлять...пусть послушает.
Мне понравилось даже очень.Спасибо.
[Профиль]  [ЛС] 

Лисной Йожыг

Стаж: 10 лет 9 месяцев

Сообщений: 922

Лисной Йожыг · 27-Авг-16 15:04 (спустя 1 день 1 час)

Пожалуйста!
Думаю, известному барабанщику нравится "более агрессивный и грязный звук"
[Профиль]  [ЛС] 

Iwhisper

Стаж: 9 лет 2 месяца

Сообщений: 11


Iwhisper · 13-Сен-16 17:29 (спустя 17 дней)

S&M для меня заиграл новыми красками, появилась прозрачность, спасибо огромное за проделанную большую работу
[Профиль]  [ЛС] 

Лисной Йожыг

Стаж: 10 лет 9 месяцев

Сообщений: 922

Лисной Йожыг · 14-Сен-16 20:16 (спустя 1 день 2 часа)

Iwhisper, пожалуйста, приятного прослушивания я тоже часть материала по-новой открыл для себя.
[Профиль]  [ЛС] 

slavix4433

Стаж: 10 лет 5 месяцев

Сообщений: 992

slavix4433 · 30-Сен-16 16:46 (спустя 15 дней)

Благодарочка!!! Впервые смог прослушать Магнетик полностью) без желания нагадить на колонки))) Ниче так альбом оказывается))))
Раньше больше двух песен не выдерживал, причем какафония не воспринималась и не откладывалась как музыкальный материал, скорее как белый шум!)
Лисной Йожыг - здоровья и успехов тебе уважаемый в нелегком занятии!)
Это замечательно что кто то может исправить то, что наделали старые, толстые менеджеры в погоне за "длинным рублём"!
[Профиль]  [ЛС] 

Voymold

Стаж: 9 лет 11 месяцев

Сообщений: 43


Voymold · 06-Окт-16 22:29 (спустя 6 дней)

Большое спасибо за труды по восстановлению. Пока начал ознакомление с последних. Тот же St. Anger отсюда поприятней, чем оригинал, чувствуется более широкий динамический диапазон, теперь бас слышен без напряга. А вот Death Magnetic не очень понравился. Разумеется, на несколько порядков лучше оригинала, но звук всё равно резковатый и режущий. Мне очень понравился вариант отсюда: Ссылка мертва, перелил.
скрытый текст
Там звук, на мой взгляд, более богатый и объёмный.
[Профиль]  [ЛС] 

Лисной Йожыг

Стаж: 10 лет 9 месяцев

Сообщений: 922

Лисной Йожыг · 07-Окт-16 11:48 (спустя 13 часов)

Voymold, пожалуйста.
По-хорошему, Death Magnetic, St. Anger и Black Album надо бы заново обработать, с приглушением рабочего барабана, но, пока что я не готов этого сделать, хотя, кое-какие идеи есть.
Цитата:
Мне очень понравился вариант отсюда
На трекере есть 2 варианта это альбома, "выдранного" из игры. Звучит он по-другому, т.к. там другой мастеринг.
[Профиль]  [ЛС] 

genabatareyka

Стаж: 8 лет

Сообщений: 24


genabatareyka · 14-Окт-16 00:58 (спустя 6 дней)

Честно говоря, я просто не знаю как описать свои эмоции. Каждый раз включая мгнетик я чувствовал себя мазохистом, испытывая тонны боли ради нескольких приятных мгновений. Тут не то что благодарность, тут памятник нужно ставить за такой труд. ОГРОМНЕЙШЕЕ СПАСИБО!!!
[Профиль]  [ЛС] 

Лисной Йожыг

Стаж: 10 лет 9 месяцев

Сообщений: 922

Лисной Йожыг · 14-Окт-16 15:10 (спустя 14 часов)

genabatareyka, пожалуйста буду стараться и далее радовать меломанов.
[Профиль]  [ЛС] 

valentinne

Стаж: 10 лет 6 месяцев

Сообщений: 5

valentinne · 31-Окт-16 21:04 (спустя 17 дней)

Спасибо за раздачу!
На альбоме Garage Inc. треке Mercyful Fate на 8:37 обнаружил искажение звука. Просьба проверить если не сложно!
[Профиль]  [ЛС] 

Лисной Йожыг

Стаж: 10 лет 9 месяцев

Сообщений: 922

Лисной Йожыг · 31-Окт-16 21:36 (спустя 32 мин.)

valentinne, пожалуйста!
Проверил, искажения звука не заметил (если не считать свистящего сибилянта в этот момент).
[Профиль]  [ЛС] 

Voymold

Стаж: 9 лет 11 месяцев

Сообщений: 43


Voymold · 17-Ноя-16 16:33 (спустя 16 дней)

Уважаемый Лисной Йожыг, поставите ли вы в свою очередь релизов на обработку свежевышедший Hardwired...? =) На трекере уже появился и, как ожидалось, с типично "фидельмановским" звуком.
[Профиль]  [ЛС] 

Лисной Йожыг

Стаж: 10 лет 9 месяцев

Сообщений: 922

Лисной Йожыг · 17-Ноя-16 21:11 (спустя 4 часа)

Voymold, конечно. Как выложат нормальные image-рипы, займусь обновлением раздачи.
[Профиль]  [ЛС] 

MikleSaf

Стаж: 8 лет 3 месяца

Сообщений: 17


MikleSaf · 11-Дек-16 20:58 (спустя 23 дня)

Спасибо. Звук отличный. Вот бы в таком же качестве студийные альбомы после 92 года Rage:
https://rutracker.org/forum/viewtopic.php?t=5119745
[Профиль]  [ЛС] 

Лисной Йожыг

Стаж: 10 лет 9 месяцев

Сообщений: 922

Лисной Йожыг · 21-Дек-16 21:54 (спустя 10 дней)

Обновление
Раздача переделана заново. Добавлены альбомы "Hardwired...to Self-Destruct", "Lulu", "Live Shit: Binge & Purge", сингл "St. Anger".
[Профиль]  [ЛС] 

zeppelin69

Стаж: 10 лет 6 месяцев

Сообщений: 60

zeppelin69 · 22-Дек-16 09:33 (спустя 11 часов)

Спасибо. Всё очень понравилось. Первые четыре альбома??
[Профиль]  [ЛС] 

Лисной Йожыг

Стаж: 10 лет 9 месяцев

Сообщений: 922

Лисной Йожыг · 22-Дек-16 12:27 (спустя 2 часа 53 мин.)

zeppelin69, пожалуйста.
А что с альбомами до 1991 года не так? На трекере они представлены по-моему, в широчайшем варианте выбора: как первопрессы, так и ремастеры.
Опять же, в этом разделе можно найти варианты альбомов, обработанных другими релизерами. Тот же 88й год есть с добавленной бас-партией, и на мой взгляд, интересен для коллекции.
[Профиль]  [ЛС] 

zeppelin69

Стаж: 10 лет 6 месяцев

Сообщений: 60

zeppelin69 · 22-Дек-16 15:13 (спустя 2 часа 46 мин.)

Лисной Йожыг писал(а):
72079831zeppelin69, пожалуйста.
А что с альбомами до 1991 года не так? На трекере они представлены по-моему, в широчайшем варианте выбора: как первопрессы, так и ремастеры.
Опять же, в этом разделе можно найти варианты альбомов, обработанных другими релизерами. Тот же 88й год есть с добавленной бас-партией, и на мой взгляд, интересен для коллекции.
Спасибо.
[Профиль]  [ЛС] 

Nail2

Стаж: 9 лет 6 месяцев

Сообщений: 17


Nail2 · 19-Янв-17 22:52 (спустя 28 дней)

Скачал, перевел в мп3 - все равно разница колоссальная!
Спасибо)
Вы приблизили звук к оригинальным записям или как?) А откуда тогда знать, как должен звучать оригинал, если на носителях уже есть определенный звук с клиппингом? Или оригинальный звук на виниле?
Можете пояснить?
[Профиль]  [ЛС] 

Vadddark

Стаж: 9 лет 8 месяцев

Сообщений: 106


Vadddark · 19-Янв-17 23:24 (спустя 32 мин.)

Nail2 писал(а):
72270760Скачал, перевел в мп3 - все равно разница колоссальная!
Спасибо)
Вы приблизили звук к оригинальным записям или как?) А откуда тогда знать, как должен звучать оригинал, если на носителях уже есть определенный звук с клиппингом? Или оригинальный звук на виниле?
Можете пояснить?
Исходный материал обрабатывается путём эквализации и компрессии (лимитирования). Для каждого вида издания (носителя) обычно применяются собственные настройки мастеринга в зависимости от типа носителя, аудиопотребителя и воспроизводящего звук прибора (особенностей его звучания).
винил, cd диск и так далее носители, все дороги хороши выбирай на слух))) а звучит оригинал в студии )))
[Профиль]  [ЛС] 

berserk83

Стаж: 5 лет

Сообщений: 56


berserk83 · 05-Фев-17 21:01 (спустя 16 дней)

Звучит действительно мягче, делаешь громче и при этом не напрягаешь слух. Особенно чувствуется разница после того как прослушав трек с оригинального СD, слушаешь деклиппированный. Автору спасибо!
[Профиль]  [ЛС] 

Лисной Йожыг

Стаж: 10 лет 9 месяцев

Сообщений: 922

Лисной Йожыг · 06-Фев-17 17:21 (спустя 20 часов)

berserk83, пожалуйста! Немного удручает то, что коллектив достаточно наплевательски относится к качеству своих записей.
[Профиль]  [ЛС] 

Axiom794

Стаж: 8 лет 10 месяцев

Сообщений: 2

Axiom794 · 30-Мар-17 23:33 (спустя 1 месяц 24 дня)

Отличный релиз, забираю! Автор, делайте ещё и не останавливайтесь!
[Профиль]  [ЛС] 
 
Ответить
Loading...
Error