Удивительные пауки / Incredible Spiders (Джессика Коннелл / Jessica Connell) [2015, Документальный, HDTV 1080i]

Страницы:  1
Ответить
Автор
Сообщение

twdragon

Top Seed 03* 160r

Стаж: 11 лет 4 месяца

Сообщений: 797

twdragon · 22-Май-16 23:06 (3 года 2 месяца назад, ред. 23-Май-16 22:04)

Удивительные пауки / Incredible Spiders
Год выпуска: 2015
Страна: США
Студия: Earth Touch / National Geographic
Жанр: Документальный
Продолжительность: 00:44:00
Перевод: Студийный (одноголосый закадровый)
Режиссер: Джессика Коннелл / Jessica Connell
Доп. инфо о переводе: студия "Велес" - Олег Федоров
Русские субтитры: нет
Описание: Исследуйте скрытый мир, которым правят волосатые восьминогие монстры, являющиеся самыми универсальными машинами для убийства на планете. Гидравлические ноги, мощные челюсти и парализующий яд - у пауков есть все необходимое, чтобы жить и здравствовать миллионы лет.
Доп. информация: Необработанный поток со спутника.
Сэмпл: http://multi-up.com/1102591
Тип релиза: HDTV 1080i
Контейнер: MKV
Видео: 1920x1080 (16:9 PAL HD), H.264 [AVC] Level 4, 25 fps, Interlaced, ABR 5700 kbps
Аудио: Russian (VO "Велес"), MPEG1-Layer 2, 48000 Hz, 2.0ch Stereo, CBR 192 kbps
MediaInfo
General
Unique ID : 126940382647992625648455653332853682672 (0x5F7FD412A30243EBE97E4E00B73771F0)
Complete name : Удивительные пауки.mkv
Format : Matroska
Format version : Version 4 / Version 2
File size : 1.85 GiB
Duration : 44mn 0s
Overall bit rate : 6 015 Kbps
Encoded date : UTC 2016-05-22 19:45:49
Writing application : mkvmerge v9.1.0 ('Little Earthquakes') 64bit
Writing library : libebml v1.3.3 + libmatroska v1.4.4
DURATION : 00:46:44.712000000
NUMBER_OF_FRAMES : 109948
NUMBER_OF_BYTES : 63330048
_STATISTICS_WRITING_APP : mkvmerge v9.1.0 ('Little Earthquakes') 64bit
_STATISTICS_WRITING_DATE_UTC : 2016-05-22 19:45:49
_STATISTICS_TAGS : BPS DURATION NUMBER_OF_FRAMES NUMBER_OF_BYTES
Video
ID : 1
Format : AVC
Format/Info : Advanced Video Codec
Format profile : [email protected]
Format settings, CABAC : Yes
Format settings, ReFrames : 4 frames
Codec ID : V_MPEG4/ISO/AVC
Duration : 44mn 0s
Bit rate : 5 703 Kbps
Width : 1 920 pixels
Height : 1 080 pixels
Display aspect ratio : 16:9
Frame rate mode : Constant
Frame rate : 25.000 fps
Standard : Component
Color space : YUV
Chroma subsampling : 4:2:0
Bit depth : 8 bits
Scan type : Interlaced
Scan order : Top Field First
Bits/(Pixel*Frame) : 0.110
Stream size : 1.75 GiB (95%)
Default : Yes
Forced : No
Color primaries : BT.709
Transfer characteristics : BT.709
Matrix coefficients : BT.709
Audio
ID : 2
Format : MPEG Audio
Format version : Version 1
Format profile : Layer 2
Mode : Joint stereo
Mode extension : Intensity Stereo + MS Stereo
Codec ID : A_MPEG/L2
Codec ID/Hint : MP2
Duration : 44mn 0s
Bit rate mode : Constant
Bit rate : 192 Kbps
Channel(s) : 2 channels
Sampling rate : 48.0 KHz
Compression mode : Lossy
Delay relative to video : 11ms
Stream size : 60.4 MiB (3%)
Title : Russian VO (студия "Велес") - Олег Федоров
Language : Russian
Default : Yes
Forced : No
Скриншоты
Download
Сайт не распространяет и не хранит электронные версии произведений, а лишь предоставляет доступ к создаваемому пользователями каталогу ссылок на торрент-файлы, которые содержат только списки хеш-сумм
Как скачивать? (для скачивания .torrent файлов необходима регистрация)
[Профиль]  [ЛС] 
 
Ответить
Loading...
Error