[RM] [restored] [declipped] [16/44] (Sludge metal, Progressive metal, Alternative metal) Baroness - Дискография - 2004-2015, FLAC (image+.cue)

Страницы:  1

Ответить
Автор
Сообщение

Лисной Йожыг

Стаж: 10 лет 9 месяцев

Сообщений: 922

Лисной Йожыг · 06-Окт-16 16:12 (2 года 9 месяцев назад, ред. 03-Июл-18 13:00)


Жанр: Sludge metal, Progressive metal, Alternative metal
Год выпуска: 2004-2015
Аудио кодек: FLAC
Тип рипа: image+.cue
Формат записи: 16/44
Формат раздачи: 16/44
Продолжительность: 05:25:15
Исходник для обработки: Дискография; Purple
Обработка: Устранение клиппинга, восстановление динамического диапазона.

Studio albums
2007 - Red Album
01. Rays on Pinion (7:36)
02. The Birthing (5:03)
03. Isak (4:22)
04. Wailing Wintry Wind (5:55)
05. Cockroach en Fleur (1:50)
06. Wanderlust (4:30)
07. Aleph (4:22)
08. Teeth of a Cogwheel (2:17)
09. O'Appalachia (2:37)
10. Grad (5:55)
11. Untitled (12:12)
Исходное издание: Relapse Records – RR 6721-2
Обработка: Проведены деклиппинг и декомпрессия материала.
Спектр, АЧХ, Уровень записи, Динамический диапазон
АЧХ до обработки - красного цвета, после обработки - зеленого.
Код:
foobar2000 1.3.9 / Замер динамического диапазона (DR) 1.1.1
Дата отчёта: 2016-10-06 15:18:56
--------------------------------------------------------------------------------
Анализ:   Baroness / Red Album
--------------------------------------------------------------------------------
DR         Пики          RMS        Продолжительность трека
--------------------------------------------------------------------------------
DR11      -0.69 дБ   -13.92 дБ      7:36 1-Rays on Pinion
DR11      -0.74 дБ   -13.23 дБ      5:03 2-The Birthing
DR11      -0.71 дБ   -13.59 дБ      4:22 3-Isak
DR11      -0.76 дБ   -13.97 дБ      5:55 4-Wailing Wintry Wind
DR12      -1.79 дБ   -17.66 дБ      1:50 5-Cockroach en Fleur
DR11      -0.72 дБ   -12.97 дБ      4:30 6-Wanderlust
DR11      -0.59 дБ   -13.98 дБ      4:22 7-Aleph
DR11      -0.49 дБ   -14.29 дБ      2:17 8-Teeth of a Cogwheel
DR11      -0.84 дБ   -12.96 дБ      2:37 9-O'Appalachia
DR10      -0.77 дБ   -14.25 дБ      5:55 10-Grad
DR19      -0.77 дБ   -26.89 дБ     12:12 11-Untitled
--------------------------------------------------------------------------------
Количество треков: 11
Реальные значения DR: DR12
Частота:  44100 Гц
Каналов:  2
Разрядность:   16
Битрейт:  701 кбит/с
Кодек:   FLAC
2009 - Blue Record
01. Bullhead's Psalm (1:20)
02. The Sweetest Curse (4:31)
03. Jake Leg (4:23)
04. Steel That Sleeps the Eye (2:38)
05. Swollen And Halo (6:35)
06. Ogeechee Hymnal (2:36)
07. A Horse Called Golgotha (5:21)
08. O'er Hell And Hide (4:22)
09. War, Wisdom, And Rhyme (4:25)
10. Blackpowder Orchard (1:01)
11. The Gnashing (4:18)
12. Bullhead's Lament (2:59)
Live at Roadburn Festival 2009:
01. The Birthing (8:56)
02. Isak (4:22)
03. Rays on Pinion (8:34)
04. Wanderlust (5:14)
05. Grad (7:22)
Исходное издание: Relapse Records – RR7069
Обработка: Проведена декомпрессия материала.
Примечание: Из-за мастеринга с сильным лимитированием, полностью приглушить ударные не удалось.
Спектр, АЧХ, Уровень записи, Динамический диапазон
АЧХ до обработки - красного цвета, после обработки - зеленого.
Код:
foobar2000 1.3.9 / Замер динамического диапазона (DR) 1.1.1
Дата отчёта: 2016-10-06 15:30:58
--------------------------------------------------------------------------------
Анализ:   Baroness / Blue Record
--------------------------------------------------------------------------------
DR         Пики          RMS        Продолжительность трека
--------------------------------------------------------------------------------
DR12      -3.88 дБ   -19.91 дБ      1:20 1-Bullhead's Psalm
DR11      -1.09 дБ   -14.32 дБ      4:31 2-The Sweetest Curse
DR10      -0.82 дБ   -13.27 дБ      4:23 3-Jake Leg
DR11      -4.74 дБ   -21.67 дБ      2:38 4-Steel That Sleeps the Eye
DR11      -1.05 дБ   -14.03 дБ      6:35 5-Swollen And Halo
DR12      -1.43 дБ   -17.55 дБ      2:36 6-Ogeechee Hymnal
DR11      -0.53 дБ   -12.98 дБ      5:21 7-A Horse Called Golgotha
DR11      -0.50 дБ   -13.68 дБ      4:22 8-O'er Hell And Hide
DR11      -0.87 дБ   -13.52 дБ      4:25 9-War, Wisdom, And Rhyme
DR10      -5.45 дБ   -19.16 дБ      1:01 10-Blackpowder Orchard
DR11      -0.85 дБ   -14.52 дБ      4:18 11-The Gnashing
DR11      -3.52 дБ   -18.44 дБ      2:59 12-Bullhead's Lament
--------------------------------------------------------------------------------
Количество треков: 12
Реальные значения DR: DR11
Частота:  44100 Гц
Каналов:  2
Разрядность:   16
Битрейт:  861 кбит/с
Кодек:   FLAC
--------------------------------------------------------------------------------
Анализ:   Baroness / Live at Roadburn Festival 2009
--------------------------------------------------------------------------------
DR         Пики          RMS        Продолжительность трека
--------------------------------------------------------------------------------
DR10      -0.59 дБ   -13.02 дБ      8:56 1-The Birthing
DR10      -0.50 дБ   -12.20 дБ      4:22 2-Isak
DR10      -0.51 дБ   -12.68 дБ      8:34 3-Rays on Pinion
DR10      -0.64 дБ   -12.59 дБ      5:14 4-Wanderlust
DR10      -0.61 дБ   -13.64 дБ      7:22 5-Grad
--------------------------------------------------------------------------------
Количество треков: 5
Реальные значения DR: DR10
Частота:  44100 Гц
Каналов:  2
Разрядность:   16
Битрейт:  858 кбит/с
Кодек:   FLAC
2012 - Yellow & Green
Yellow:
01. Yellow Theme (1:45)
02. Take My Bones Away (4:59)
03. March to the Sea (3:11)
04. Little Things (5:03)
05. Twinkler (3:17)
06. Cocainium (5:09)
07. Back Where I Belong (6:15)
08. Sea Lungs (3:21)
09. Eula (6:48)
Green:
01. Green Theme (4:22)
02. Board Up the House (4:33)
03. MTNS. (The Crown & Anchor) (4:17)
04. Foolsong (2:58)
05. Collapse (3:52)
06. Psalms Alive (4:09)
07. Stretchmarker (3:23)
08. The Line Between (5:02)
09. If I Forget Thee, Lowcountry (2:42)
Исходное издание: Relapse Records – RR7193
Обработка: Проведены деклиппинг и декомпрессия материала.
Спектр, АЧХ, Уровень записи, Динамический диапазон
АЧХ до обработки - красного цвета, после обработки - зеленого.
Код:
foobar2000 1.3.9 / Замер динамического диапазона (DR) 1.1.1
Дата отчёта: 2016-10-06 15:42:18
--------------------------------------------------------------------------------
Анализ:   Baroness / Yellow
--------------------------------------------------------------------------------
DR         Пики          RMS        Продолжительность трека
--------------------------------------------------------------------------------
DR12      -8.27 дБ   -23.62 дБ      1:45 1-Yellow Theme
DR10      -0.72 дБ   -12.66 дБ      4:59 2-Take My Bones Away
DR10      -0.77 дБ   -12.37 дБ      3:11 3-March to the Sea
DR10      -0.49 дБ   -13.10 дБ      5:03 4-Little Things
DR9       -2.75 дБ   -15.71 дБ      3:17 5-Twinkler
DR11      -0.64 дБ   -14.46 дБ      5:09 6-Cocainium
DR10      -0.50 дБ   -13.58 дБ      6:15 7-Back Where I Belong
DR9       -1.27 дБ   -11.30 дБ      3:21 8-Sea Lungs
DR11      -0.64 дБ   -14.01 дБ      6:48 9-Eula
--------------------------------------------------------------------------------
Количество треков: 9
Реальные значения DR: DR10
Частота:  44100 Гц
Каналов:  2
Разрядность:   16
Битрейт:  776 кбит/с
Кодек:   FLAC
--------------------------------------------------------------------------------
Анализ:   Baroness / Green
--------------------------------------------------------------------------------
DR         Пики          RMS        Продолжительность трека
--------------------------------------------------------------------------------
DR10      -0.50 дБ   -14.96 дБ      4:22 1-Green Theme
DR9       -0.67 дБ   -12.28 дБ      4:33 2-Board Up the House
DR10      -0.51 дБ   -12.24 дБ      4:17 3-MTNS. (The Crown & Anchor)
DR11      -1.58 дБ   -15.25 дБ      2:58 4-Foolsong
DR11      -2.39 дБ   -16.14 дБ      3:52 5-Collapse
DR10      -0.67 дБ   -13.97 дБ      4:09 6-Psalms Alive
DR10      -2.56 дБ   -16.08 дБ      3:23 7-Stretchmarker
DR9       -0.51 дБ   -11.63 дБ      5:02 8-The Line Between
DR12      -3.58 дБ   -20.14 дБ      2:42 9-If I Forget Thee, Lowcountry
--------------------------------------------------------------------------------
Количество треков: 9
Реальные значения DR: DR10
Частота:  44100 Гц
Каналов:  2
Разрядность:   16
Битрейт:  738 кбит/с
Кодек:   FLAC
2015 - Purple
01. Morningstar (4:17)
02. Shock Me (4:17)
03. Try to Disappear (4:53)
04. Kerosene (5:11)
05. Fugue (2:35)
06. Chlorine & Wine (6:49)
07. The Iron Bell (4:25)
08. Desperation Burns (4:14)
09. If I Have to Wake Up (Would You Stop the Rain?) (5:42)
10. Crossroads of Infinity (0:17)
Исходное издание: Abraxan Hymns – ABXN-001
Обработка: Проведены деклиппинг и декомпрессия материала.
Примечание: Мастеринг ужасен, и от кошмарного звучания ударных избавиться не удалось.
Спектр, АЧХ, Уровень записи, Динамический диапазон
АЧХ до обработки - красного цвета, после обработки - зеленого.
Код:
foobar2000 1.3.9 / Замер динамического диапазона (DR) 1.1.1
Дата отчёта: 2016-10-06 15:49:13
--------------------------------------------------------------------------------
Анализ:   Baroness / Purple
--------------------------------------------------------------------------------
DR         Пики          RMS        Продолжительность трека
--------------------------------------------------------------------------------
DR10      -0.56 дБ   -12.05 дБ      4:17 1-Morningstar
DR10      -0.66 дБ   -12.85 дБ      4:17 2-Shock Me
DR10      -0.64 дБ   -13.22 дБ      4:53 3-Try to Disappear
DR11      -0.71 дБ   -14.12 дБ      5:11 4-Kerosene
DR12      -1.52 дБ   -18.11 дБ      2:35 5-Fugue
DR10      -0.65 дБ   -13.93 дБ      6:49 6-Chlorine & Wine
DR11      -0.54 дБ   -12.63 дБ      4:25 7-The Iron Bell
DR11      -0.51 дБ   -12.81 дБ      4:14 8-Desperation Burns
DR11      -1.65 дБ   -15.46 дБ      5:42 9-If I Have to Wake Up (Would You Stop the Rain?)
DR9      -12.38 дБ   -35.07 дБ      0:17 10-Crossroads of Infinity
--------------------------------------------------------------------------------
Количество треков: 10
Реальные значения DR: DR11
Частота:  44100 Гц
Каналов:  2
Разрядность:   16
Битрейт:  894 кбит/с
Кодек:   FLAC
Singles & EP
2004 - First
01. Tower Falls (7:10)
02. Coeur (3:17)
03. Rise (6:28)
Исходное издание: Hyperrealist – HR019
Обработка: Проведены деклиппинг и декомпрессия материала.
Примечание: Является первой частью сборника "First & Second". Выделен в отдельный сингл.
Спектр, АЧХ, Уровень записи, Динамический диапазон
АЧХ до обработки - красного цвета, после обработки - зеленого.
Код:
foobar2000 1.3.9 / Замер динамического диапазона (DR) 1.1.1
Дата отчёта: 2016-10-06 15:52:14
--------------------------------------------------------------------------------
Анализ:   Baroness / First
--------------------------------------------------------------------------------
DR         Пики          RMS        Продолжительность трека
--------------------------------------------------------------------------------
DR10      -1.01 дБ   -12.72 дБ      7:10 1-Tower Falls
DR10      -1.18 дБ   -12.72 дБ      3:17 2-Coeur
DR11      -0.80 дБ   -13.18 дБ      6:28 3-Rise
--------------------------------------------------------------------------------
Количество треков: 3
Реальные значения DR: DR10
Частота:  44100 Гц
Каналов:  2
Разрядность:   16
Битрейт:  938 кбит/с
Кодек:   FLAC
2005 - Second
01. Red Sky (5:44)
02. Son of Sun (7:04)
03. Vision (7:28)
Исходное издание: Hyperrealist – HR019
Обработка: Проведены деклиппинг и декомпрессия материала.
Примечание: Является второй частью сборника "First & Second". Выделен в отдельный сингл.
Спектр, АЧХ, Уровень записи, Динамический диапазон
Графики под спойлером предыдущего сингла.
Код:
ffoobar2000 1.3.9 / Замер динамического диапазона (DR) 1.1.1
Дата отчёта: 2016-10-06 15:55:45
--------------------------------------------------------------------------------
Анализ:   Baroness / Second
--------------------------------------------------------------------------------
DR         Пики          RMS        Продолжительность трека
--------------------------------------------------------------------------------
DR10      -0.50 дБ   -11.91 дБ      5:44 1-Red Sky
DR10      -0.71 дБ   -12.88 дБ      7:04 2-Son of Sun
DR10      -0.71 дБ   -12.78 дБ      7:28 3-Vision
--------------------------------------------------------------------------------
Количество треков: 3
Реальные значения DR: DR10
Частота:  44100 Гц
Каналов:  2
Разрядность:   16
Битрейт:  882 кбит/с
Кодек:   FLAC
2007 - A Grey Sigh In a Flower Husk
01. Baroness - Teiresias (6:21)
02. Baroness - Cavite (12:11)
03. Unpersons - Black Finnegan (3:06)
04. Unpersons - Number (3:00)
05. Unpersons - Dry Hand (3:33)
06. Unpersons - A Small Gesture, a Thousand Small Happy Gestures (6:32)
Исходное издание: At A Loss Recordings – AAL019CD
Обработка: Проведены деклиппинг и декомпрессия материала.
Спектр, АЧХ, Уровень записи, Динамический диапазон
АЧХ до обработки - красного цвета, после обработки - зеленого.
Код:
foobar2000 1.3.9 / Замер динамического диапазона (DR) 1.1.1
Дата отчёта: 2016-10-06 15:58:45
--------------------------------------------------------------------------------
Анализ:   Baroness & Unpersons / A Grey Sigh In a Flower Husk
--------------------------------------------------------------------------------
DR         Пики          RMS        Продолжительность трека
--------------------------------------------------------------------------------
DR10      -0.84 дБ   -13.10 дБ      6:21 1-Baroness - Teiresias
DR9       -0.98 дБ   -12.69 дБ     12:11 2-Baroness - Cavite
DR10      -0.68 дБ   -12.93 дБ      3:06 3-Unpersons - Black Finnegan
DR11      -0.79 дБ   -14.15 дБ      3:00 4-Unpersons - Number
DR10      -0.85 дБ   -12.63 дБ      3:33 5-Unpersons - Dry Hand
DR11      -0.51 дБ   -13.90 дБ      6:32 6-Unpersons - A Small Gesture, a Thousand Small Happy Gestures
--------------------------------------------------------------------------------
Количество треков: 6
Реальные значения DR: DR10
Частота:  44100 Гц
Каналов:  2
Разрядность:   16
Битрейт:  806 кбит/с
Кодек:   FLAC
Дополнительная информация
Обработка: Adobe Audition с плагинами Perfect Declipper, Acon Digital DeClip, Fabfilter Pro-L, Fabfilter Pro-MB, Natural Dynamics, Flux:: Pure DCompressor, Zunaptiq Unchirp.
Мониторинг результата:
Стационарная аппаратура: NAD D 1050 + Beyerdynamic DT 990 Pro и Rotel RA-10 + Jamo C603
Мобильная аппаратура: Meizu MX2 + Sennheiser CX 980
Примечание: Деклиппинг и восстановление динамического диапазона - не панацея от некачественной записи. Целью реставрации является меньшая усталость при прослушивании, и звучание, приближенное к тому, которое задумывалось звукорежиссером, до вмешательства маркетологов.
Материалы по теме "Война громкости": 1, 2, 3

Другие раздачи в рамках проекта можно найти здесь
Download
Для скачивания .torrent файлов необходима регистрация
Сайт не распространяет и не хранит электронные версии произведений, а лишь предоставляет доступ к создаваемому пользователями каталогу ссылок на торрент-файлы, которые содержат только списки хеш-сумм
[Профиль]  [ЛС] 

metachrom

Стаж: 7 лет

Сообщений: 315

metachrom · 06-Окт-16 16:22 (спустя 10 мин.)

Ух ты, какой царский подгон.)
Унёс с благодарностями.)
[Профиль]  [ЛС] 

Лисной Йожыг

Стаж: 10 лет 9 месяцев

Сообщений: 922

Лисной Йожыг · 06-Окт-16 16:24 (спустя 1 мин.)

Цитата:
Унёс с благодарностями
Вот так вот, даже благодарности унес, ничего не оставил
Старайся тут, понимаешь...
[Профиль]  [ЛС] 

metachrom

Стаж: 7 лет

Сообщений: 315

metachrom · 06-Окт-16 16:42 (спустя 18 мин., ред. 06-Окт-16 17:19)

Ага, сходу и не сообразил, что тебе нужнее, утащил.)
А теперь возвращать как-то не комильфо – скажешь: ну накой мне поюзанные?)
[Профиль]  [ЛС] 

Лисной Йожыг

Стаж: 10 лет 9 месяцев

Сообщений: 922

Лисной Йожыг · 06-Окт-16 16:48 (спустя 5 мин.)

Со следующей дискографией отдашь, с процентами )
[Профиль]  [ЛС] 

vagratah

Стаж: 8 лет 5 месяцев

Сообщений: 61

vagratah · 15-Окт-16 00:28 (спустя 8 дней)

Спасибо вам за ваш труд!
Я надеюсь увидеть Insomnium - Дискография
[Профиль]  [ЛС] 

Лисной Йожыг

Стаж: 10 лет 9 месяцев

Сообщений: 922

Лисной Йожыг · 15-Окт-16 10:11 (спустя 9 часов)

vagratah, пожалуйста
Честно говоря, все никак не доберусь, никак обещанное не доделаю, и не переделаю кое-чего из старого. Но, в планы занесено, поэтому, не потеряется
[Профиль]  [ЛС] 

BEFFECT

Стаж: 11 лет 2 месяца

Сообщений: 39

BEFFECT · 16-Окт-16 02:14 (спустя 16 часов, ред. 16-Окт-16 08:38)

Ты твориш чудо, просто пару дискографий медиатеки меняю на твои ...
Здоровья!Счастья! Всего тебе!
Жду от тебя все : arctic monkeys,kings of leon,oasis,black keys,coldplay,radiohead,placebo,lenny kravitz,queens of the stone age,cardigans,jamiroquai,depeche mode.......
Всмысле все как решиш так и жду ... без подсказок)))
[Профиль]  [ЛС] 

Лисной Йожыг

Стаж: 10 лет 9 месяцев

Сообщений: 922

Лисной Йожыг · 16-Окт-16 16:35 (спустя 14 часов)

BEFFECT, благодарю за отзыв. Что-то из этого списка будет сделано в своё время.
[Профиль]  [ЛС] 

Дмитрий Королёв

Стаж: 8 лет 6 месяцев

Сообщений: 41

Дмитрий Королёв · 07-Дек-16 16:36 (спустя 1 месяц 22 дня)

Спасибо большое за раздачу. Особенно за Purple. Этот альбом в оригинальном звуке слушать было просто невозможно, хотя сам альбом понравился изначально. После ваших манипуляций слушается на "УРА!".
[Профиль]  [ЛС] 

Лисной Йожыг

Стаж: 10 лет 9 месяцев

Сообщений: 922

Лисной Йожыг · 08-Дек-16 14:54 (спустя 22 часа)

Дмитрий Королёв, пожалуйста. Альбом мне тоже понравился, и как правильно вы заметили - слушать в оригинальном варианте его просто невозможно.
[Профиль]  [ЛС] 

wormwormworm

Стаж: 11 лет 7 месяцев

Сообщений: 471

wormwormworm · 10-Мар-18 11:09 (спустя 1 год 3 месяца)

меня удивляет качество. Не только этой группы. Даже довольно крутейшая команда Марс Вольта записана отстойно. Антиклипинг несколько спасает, но и он не панацея. Проще отказаться от слушания этих интересных групп, чем слушать в таком качестве. Догадка, что из-за войны громкости при масатеринге ставят такие настройки компрессии, что много параметров портятся, а например при антиклиппинге, который отчасти восстанавливает динамику, восстановить ее правильно невозможно из-за утерянной информации при первичной компрессии. Получается, что тихие места звучат более громко и чисто, а громкие грязнее и тише, это просто бесит.
[Профиль]  [ЛС] 

Лисной Йожыг

Стаж: 10 лет 9 месяцев

Сообщений: 922

Лисной Йожыг · 11-Мар-18 17:51 (спустя 1 день 6 часов)

wormwormworm, эта беда (с искажениями на этапе сведения), с сожалению, встречается всё чаще и чаще. Раздачу с Baroness меня очень долго просили сделать, но, изначально было ясен результат. С Mars Volta та же проблема - там неплохо получился только Octahedron, а другие альбомы страдают от кучи искажений, внесённых ещё на этапе сведения.
Цитата:
Проще отказаться от слушания этих интересных групп
Так не хочется же отказываться, вот и от попытки к попытке приходится возиться с плагинами, авось, чего-то накрутится.
[Профиль]  [ЛС] 

neurologist

Стаж: 9 лет 6 месяцев

Сообщений: 353

neurologist · 27-Дек-18 09:05 (спустя 9 месяцев)

Спасибо огромное, не только за Baroness но и многие остальные труды, которые вернули звучание из мёртвых
[Профиль]  [ЛС] 

Лисной Йожыг

Стаж: 10 лет 9 месяцев

Сообщений: 922

Лисной Йожыг · 28-Дек-18 13:28 (спустя 1 день 4 часа)

neurologist, пожалуйста. Всё же, Baroness как ни подкручивай, смикширован гадко.
[Профиль]  [ЛС] 

nuclearmaggot

Стаж: 9 лет 7 месяцев

Сообщений: 9


nuclearmaggot · 18-Май-19 13:24 (спустя 4 месяца 20 дней, ред. 18-Май-19 13:24)

Лисной Йожыг писал(а):
76573917neurologist, пожалуйста. Всё же, Baroness как ни подкручивай, смикширован гадко.
Судя по свежим синглам из Gold&Grey, который выйдет 14го июня, многие будут благодарны Вам за реставрацию и нового альбома. Там все еще хуже чем на Purple.
Самое печальное, что Baroness делают это специально, представляя это как артистическое решение и якобы ломая парадигмы вылизанного мейнстримового звука.
А на деле выходит, что хоронят свою отличную музыку в отвратительном продакшене.
[Профиль]  [ЛС] 

Лисной Йожыг

Стаж: 10 лет 9 месяцев

Сообщений: 922

Лисной Йожыг · 21-Май-19 10:33 (спустя 2 дня 21 час)

nuclearmaggot, похоже, что у меня получится сделать Purple удобоваримым, во всяком случае, в моём понимании
[Профиль]  [ЛС] 
 
Ответить
Loading...
Error