[RM] [restored] [declipped] [16/44] (Progressive Rock, Progressive Metal) Devin Townsend - 2009-2011, FLAC (tracks+.cue)

Страницы:  1

Ответить
Автор
Сообщение

Лисной Йожыг

Стаж: 10 лет 9 месяцев

Сообщений: 922

Лисной Йожыг · 19-Янв-17 21:53 (2 года 6 месяцев назад, ред. 03-Июл-18 12:55)


Жанр: Progressive Rock, Progressive Metal
Год выпуска: 2009-2011
Аудио кодек: FLAC
Тип рипа: tracks+.cue
Формат раздачи: 16/44
Продолжительность: 04:17:07
Исходник для обработки: Дискография
Обработка: Устранение клиппинга, восстановление динамического диапазона.

Studio albums
2009 - Ki
01. A Monday (1:43)
02. Coast (4:36)
03. Disruptr (5:49)
04. Gato (5:23)
05. Terminal (6:58)
06. Heaven Send (8:54)
07. Ain't Never Gonna Win (3:17)
08. Winter (4:48)
09. Trainfire (5:58)
10. Lady Helen (6:05)
11. Ki (7:21)
12. Quiet Riot (3:02)
13. Demon League (2:55)
Исходное издание: HevyDevy Records ‎– SPV 28032 CD
Обработка: Проведен деклиппинг материала.
Спектр, АЧХ, Уровень записи, Динамический диапазон
АЧХ до обработки - красного цвета, после обработки - зеленого.
Код:
foobar2000 1.3.9 / Замер динамического диапазона (DR) 1.1.1
Дата отчёта: 2017-01-19 21:46:00
--------------------------------------------------------------------------------
Анализ:   Devin Townsend Project / Ki
--------------------------------------------------------------------------------
DR         Пики          RMS        Продолжительность трека
--------------------------------------------------------------------------------
DR9       -6.25 дБ   -19.53 дБ      1:43 1-A Monday
DR9       -3.52 дБ   -15.95 дБ      4:36 2-Coast
DR9       -1.67 дБ   -14.28 дБ      5:49 3-Disruptr
DR10      -0.50 дБ   -14.41 дБ      5:23 4-Gato
DR10      -3.90 дБ   -17.10 дБ      6:58 5-Terminal
DR10      -0.66 дБ   -14.65 дБ      8:54 6-Heaven Send
DR12      -4.58 дБ   -21.19 дБ      3:17 7-Ain't Never Gonna Win
DR11      -3.62 дБ   -18.48 дБ      4:48 8-Winter
DR10      -1.50 дБ   -16.68 дБ      5:58 9-Trainfire
DR10      -2.98 дБ   -18.63 дБ      6:05 10-Lady Helen
DR10      -0.71 дБ   -14.72 дБ      7:21 11-Ki
DR11      -3.50 дБ   -20.35 дБ      3:02 12-Quiet Riot
DR10      -7.30 дБ   -20.56 дБ      2:55 13-Demon League
--------------------------------------------------------------------------------
Количество треков: 13
Реальные значения DR: DR10
Частота:  44100 Гц
Каналов:  2
Разрядность:   16
Битрейт:  698 кбит/с
Кодек:   FLAC
2009 - Addicted
01. Addicted! (5:36)
02. Universe in a Ball! (4:08)
03. Bend it Like Bender! (3:35)
04. Supercrush! (5:11)
05. Hyperdrive! (3:34)
06. Resolve! (3:11)
07. Ih-Ah! (3:44)
08. The Way Home! (3:13)
09. Numbered! (4:54)
10. Awake!! (9:44)
Исходное издание: Inside Out Music ‎– 0507-2
Обработка: Проведены деклиппинг и декомпрессия материала.
Спектр, АЧХ, Уровень записи, Динамический диапазон
АЧХ до обработки - красного цвета, после обработки - зеленого.
Код:
foobar2000 1.3.9 / Замер динамического диапазона (DR) 1.1.1
Дата отчёта: 2017-01-26 13:39:47
--------------------------------------------------------------------------------
Анализ:   Devin Townsend Project / Addicted
--------------------------------------------------------------------------------
DR         Пики          RMS        Продолжительность трека
--------------------------------------------------------------------------------
DR10      -1.05 дБ   -12.88 дБ      5:36 1-Addicted!
DR9       -0.76 дБ   -12.37 дБ      4:08 2-Universe in a Ball!
DR10      -1.01 дБ   -12.93 дБ      3:35 3-Bend it Like Bender!
DR9       -0.50 дБ   -11.90 дБ      5:11 4-Supercrush!
DR9       -1.82 дБ   -11.97 дБ      3:34 5-Hyperdrive!
DR9       -0.93 дБ   -11.54 дБ      3:11 6-Resolve!
DR10      -2.94 дБ   -16.90 дБ      3:44 7-Ih-Ah!
DR9       -1.38 дБ   -13.32 дБ      3:13 8-The Way Home!
DR9       -1.50 дБ   -11.74 дБ      4:54 9-Numbered!
DR9       -1.22 дБ   -13.87 дБ      9:44 10-Awake!!
--------------------------------------------------------------------------------
Количество треков: 10
Реальные значения DR: DR9
Частота:  44100 Гц
Каналов:  2
Разрядность:   16
Битрейт:  901 кбит/с
Кодек:   FLAC
2011 - Deconstruction
01. Praise the Lowered (5:58)
02. Stand (9:36)
03. Juular (3:46)
04. Planet of the Apes (10:59)
05. Sumeria (6:37)
06. The Mighty Masturbator (16:28)
07. Pandemic (3:29)
08. Deconstruction (9:27)
09. Poltergeist (4:25)
Исходное издание: Inside Out Music ‎– 0505552
Обработка: Проведены деклиппинг и декомпрессия материала.
Спектр, АЧХ, Уровень записи, Динамический диапазон
АЧХ до обработки - красного цвета, после обработки - зеленого.
Код:
foobar2000 1.3.9 / Замер динамического диапазона (DR) 1.1.1
Дата отчёта: 2017-01-26 13:42:50
--------------------------------------------------------------------------------
Анализ:   Devin Townsend Project / Deconstruction
--------------------------------------------------------------------------------
DR         Пики          RMS        Продолжительность трека
--------------------------------------------------------------------------------
DR11      -1.68 дБ   -18.48 дБ      5:58 1-Praise the Lowered
DR10      -2.30 дБ   -15.43 дБ      9:36 2-Stand
DR10      -1.61 дБ   -13.11 дБ      3:46 3-Juular
DR10      -2.04 дБ   -13.78 дБ     10:59 4-Planet of the Apes
DR10      -2.07 дБ   -14.63 дБ      6:37 5-Sumeria
DR12      -0.50 дБ   -14.63 дБ     16:28 6-The Mighty Masturbator
DR10      -1.94 дБ   -12.75 дБ      3:29 7-Pandemic
DR10      -1.92 дБ   -14.44 дБ      9:27 8-Deconstruction
DR10      -1.18 дБ   -11.82 дБ      4:25 9-Poltergeist
--------------------------------------------------------------------------------
Количество треков: 9
Реальные значения DR: DR10
Частота:  44100 Гц
Каналов:  2
Разрядность:   16
Битрейт:  916 кбит/с
Кодек:   FLAC
2011 - Ghost
01. Fly (4:14)
02. Heart Baby (5:55)
03. Feather (11:30)
04. Kawaii (2:52)
05. Ghost (6:24)
06. Blackberry (4:53)
07. Monsoon (4:37)
08. Dark Matters (1:57)
09. Texada (9:30)
10. Seams (4:04)
11. Infinite Ocean (8:01)
12. As You Were (8:47)
Исходное издание: Inside Out Music ‎– 0505542
Обработка: Проведены деклиппинг и декомпрессия материала.
Спектр, АЧХ, Уровень записи, Динамический диапазон
АЧХ до обработки - красного цвета, после обработки - зеленого.
Код:
foobar2000 1.3.9 / Замер динамического диапазона (DR) 1.1.1
Дата отчёта: 2017-01-26 13:46:13
--------------------------------------------------------------------------------
Анализ:   Devin Townsend Project / Ghost
--------------------------------------------------------------------------------
DR         Пики          RMS        Продолжительность трека
--------------------------------------------------------------------------------
DR10      -1.74 дБ   -14.76 дБ      4:14 1-Fly
DR10      -1.18 дБ   -16.26 дБ      5:55 2-Heart Baby
DR10      -1.56 дБ   -15.82 дБ     11:30 3-Feather
DR10      -3.13 дБ   -15.18 дБ      2:52 4-Kawaii
DR12      -1.57 дБ   -15.44 дБ      6:24 5-Ghost
DR9       -0.60 дБ   -12.39 дБ      4:53 6-Blackberry
DR10      -5.03 дБ   -18.72 дБ      4:37 7-Monsoon
DR10      -4.67 дБ   -16.90 дБ      1:57 8-Dark Matters
DR10      -0.50 дБ   -13.47 дБ      9:30 9-Texada
DR9       -1.76 дБ   -14.40 дБ      4:04 10-Seams
DR10      -3.64 дБ   -15.42 дБ      8:01 11-Infinite Ocean
DR11      -3.16 дБ   -18.07 дБ      8:47 12-As You Were
--------------------------------------------------------------------------------
Количество треков: 12
Реальные значения DR: DR10
Частота:  44100 Гц
Каналов:  2
Разрядность:   16
Битрейт:  742 кбит/с
Кодек:   FLAC
Дополнительная информация
Обработка: Adobe Audition с плагинами Perfect Declipper, Delossifier, Azimuth Correction, Acon Digital Declip, Fabfilter Pro-L, Fabfilter Pro-MB, Flux:: Pure DCompressor, Flux:: Syrah, Zynaptiq Unchirp, Zynaptiq Unfilter.
Мониторинг результата:
Стационарная аппаратура: NAD D 1050 + Beyerdynamic DT 990 Pro и Rotel RA-10 + Jamo C603
Мобильная аппаратура: Meizu MX2 + Sennheiser CX 980
Примечание: Деклиппинг и восстановление динамического диапазона - не панацея от некачественной записи. Целью реставрации является меньшая усталость при прослушивании, и звучание, приближенное к тому, которое задумывалось звукорежиссером, до вмешательства маркетологов.
Материалы по теме "Война громкости": 1, 2, 3

Другие раздачи в рамках проекта можно найти здесь
26.01.2017: Добавлены альбомы "Addicted", "Deconstruction", "Ghost".
Download
Для скачивания .torrent файлов необходима регистрация
Сайт не распространяет и не хранит электронные версии произведений, а лишь предоставляет доступ к создаваемому пользователями каталогу ссылок на торрент-файлы, которые содержат только списки хеш-сумм
[Профиль]  [ЛС] 

derrickmauldin

Стаж: 7 лет 2 месяца

Сообщений: 7


derrickmauldin · 25-Янв-17 18:28 (спустя 5 дней)

AWESOME! Thank you! PLEASE PLEASE PLEASE do more Devin Townsend albums!!!!! I love the work your doing!
[Профиль]  [ЛС] 

Лисной Йожыг

Стаж: 10 лет 9 месяцев

Сообщений: 922

Лисной Йожыг · 26-Янв-17 14:16 (спустя 19 часов)

derrickmauldin,
Обновление
Раздача обновлена. Добавлены альбомы "Addicted", "Deconstruction", "Ghost".
[Профиль]  [ЛС] 

derrickmauldin

Стаж: 7 лет 2 месяца

Сообщений: 7


derrickmauldin · 27-Янв-17 01:10 (спустя 10 часов)

Awesome! Thanks! Are you planning on doing any others?
[Профиль]  [ЛС] 

Лисной Йожыг

Стаж: 10 лет 9 месяцев

Сообщений: 922

Лисной Йожыг · 27-Янв-17 12:23 (спустя 11 часов)

derrickmauldin, пожалуйста Да, позже будут и другие альбомы. (Yes, other albums will be added later)
[Профиль]  [ЛС] 

olzinin

Стаж: 10 лет 7 месяцев

Сообщений: 294

olzinin · 04-Июн-17 09:37 (спустя 4 месяца 7 дней)

Скачал вашу работу и был очень приятно удивлен. Открыл для себя много нюансов, которые до этого не "слышал". Вы молодец. Буду постепенно подкачивать некоторые релизы. Не останавливайтесь.
А теперь вопрос. На виниле материал именно такой? которые вы выкладываете? (например у Devin Townsend). Или и на виниле идет компрессия тоже?
Хотя наверное раз на раз не приходится.
P.S. Жду Riverside.....
[Профиль]  [ЛС] 

Лисной Йожыг

Стаж: 10 лет 9 месяцев

Сообщений: 922

Лисной Йожыг · 04-Июн-17 11:27 (спустя 1 час 50 мин., ред. 04-Июн-17 11:27)

olzinin, благодарю за отзыв
Цитата:
А теперь вопрос. На виниле материал именно такой? которые вы выкладываете?
Нет. У меня нету доступа к материалу, с которого нарезают винил. Я беру для обработки CD/Web релизы, и, в ряде случаев, после реставрации результат очень похож на мастеринг для винила. В случае, если мастеринг под винил делали специально (Opeth - Damnation) результат реставрации получается чуть хуже, но, бывают случаи, когда обработка звучит приятнее винила (Megadeth - Dystopia, Gojira - Magma).
Применительно к Devin Townsend, мне кажется, что обработка "чуть мягче", чем виниловый вариант, и меньше дисторшна на громких моментах.
Цитата:
Жду Riverside
Лежит на полочке, ждёт своей очереди в обработке. Пока сделал Indukti, планирую вскорости выложить.
[Профиль]  [ЛС] 

kirchen

Стаж: 9 лет 5 месяцев

Сообщений: 7


kirchen · 10-Июн-17 16:21 (спустя 6 дней)

С удивлением мои уши открыли для себя ваши работы, спасибо! Хотел спросить, не планируется ли Amorphis к реставрации? На их последних альбомах по-настоящему болят уши, особенно на "Circle" 13-го года.
[Профиль]  [ЛС] 

Лисной Йожыг

Стаж: 10 лет 9 месяцев

Сообщений: 922

Лисной Йожыг · 11-Июн-17 08:59 (спустя 16 часов)

kirchen, пожалуйста!
Про Amorphis пока что ничего не скажу: в близких планах не было, но, кто его знает - может какой-нибудь альбомчик попробую выложить.
[Профиль]  [ЛС] 

olzinin

Стаж: 10 лет 7 месяцев

Сообщений: 294

olzinin · 26-Ноя-17 14:48 (спустя 5 месяцев 15 дней)

Еще альбомы будут в этой раздаче?
[Профиль]  [ЛС] 

Лисной Йожыг

Стаж: 10 лет 9 месяцев

Сообщений: 922

Лисной Йожыг · 27-Ноя-17 10:38 (спустя 19 часов)

olzinin писал(а):
74308076i
Планировал дополнить ещё тремя альбомами.
[Профиль]  [ЛС] 

babylon63

Стаж: 10 лет 4 месяца

Сообщений: 389

babylon63 · 03-Мар-19 14:51 (спустя 1 год 3 месяца)

Лисной Йожыг спасибо !
Люблю творчество этого
музыканта , но слушать очень напряжно , может Ваша работа поможет , сильно надеюсь .
[Профиль]  [ЛС] 

Krolis5

Стаж: 7 лет 6 месяцев

Сообщений: 2540

Krolis5 · 19-Май-19 13:44 (спустя 2 месяца 15 дней)

Krolis5 писал(а):
77300117
Саша_Сон писал(а):
77211124ребят, имеются у кого-нибудь itunes бонусы с epicloud "cry forever" и "take my ego" с нормальным битрейтом?
все, что нашел - рипы с ютуба в печальном качестве

Случайно наткнулся на эти айтьюнсовские "демки", потом нашёл к ним "мощную" картинку и добавил еЯ в архив, более ничего не менял: Devin Townsend - Epicloud - iTunes bonus tracks.
Epicloud - "виниловый" бонус, взять можно здесь.
P.S. Музыка не моя, так, просто пробегал мимо...
[Профиль]  [ЛС] 

Лисной Йожыг

Стаж: 10 лет 9 месяцев

Сообщений: 922

Лисной Йожыг · 21-Май-19 10:23 (спустя 1 день 20 часов)

Krolis5, спасибо, они у меня есть
[Профиль]  [ЛС] 

Znatnaja_Zveruga

Стаж: 10 лет 9 месяцев

Сообщений: 10

Znatnaja_Zveruga · 23-Июн-19 03:17 (спустя 1 месяц 1 день)

Не, ты не Йожыг, ты Дикобразавр какой-то...
Таунсенда переделать, прям под мои уши! Очень люблю этого чела, но звук на его альбомах... Не сдружился он с моей системой короче.
На очереди Terria, Synchestra, плиз!!
И вот интересно, можно хоть что-нибудь сделать с отстойной кашей в Epicloud?
[Профиль]  [ЛС] 

Лисной Йожыг

Стаж: 10 лет 9 месяцев

Сообщений: 922

Лисной Йожыг · 24-Июн-19 14:46 (спустя 1 день 11 часов)

Znatnaja_Zveruga, порядка 70% дискографии сделано, в том числе Infinity и Terria. Осталось заставить себя всё доделать и выложить.
Цитата:
можно хоть что-нибудь сделать с отстойной кашей в Epicloud?
Да. Вполне пристойно получается, хотя, "стены звука" никуда не деть, конечно же.
[Профиль]  [ЛС] 

Znatnaja_Zveruga

Стаж: 10 лет 9 месяцев

Сообщений: 10

Znatnaja_Zveruga · 25-Июн-19 21:23 (спустя 1 день 6 часов)

Стена звука - это фирменное, не надо трогать!
[Профиль]  [ЛС] 

Лисной Йожыг

Стаж: 10 лет 9 месяцев

Сообщений: 922

Лисной Йожыг · 25-Июн-19 21:45 (спустя 21 мин.)

Znatnaja_Zveruga, если не трогать, то каша никуда не денется - дилемма
В общем, как созрею расширить раздачу - послушаете сами. Сравнивал свежие обработки со недавно выложенным винилом (некоторые альбомы), похоже что мои труды не пропадут зря.
[Профиль]  [ЛС] 

Znatnaja_Zveruga

Стаж: 10 лет 9 месяцев

Сообщений: 10

Znatnaja_Zveruga · 26-Июн-19 00:44 (спустя 2 часа 58 мин., ред. 26-Июн-19 00:44)

Не пропадут точно. Черт побери, я все думал, что плохую систему собрал. Столько денег угрохал, а слушать на подавляющем большинстве дисков невозможно, уши устают. Думал, что из-за несовместимости компонентов. А тут случайно наткнулся на тему - Вашу, com.bat.exe, Maveric67. И разрешился многолетний вопрос.
Жалко, эта тема не развита достаточно.
По поводу "каши" у Девина я наверно неточно выразился. Стены звука на Террии, Синчестре классно, сочно звучат, это фича. Проблемы только в мастеринге (на мой взгляд). А вот все у Девина, что вышло позже Ghost/Deconstruction, записывалось, судя по всему, в уборной, такой уж характерный звук у него вышел. Но врят ли что-то тут изменишь, даже эквалайзером :(.
[Профиль]  [ЛС] 
 
Ответить
Loading...
Error