Дикие острова: Невиданные острова / Unseen Islands (Стюарт МакФерсон / Stewart McPherson) [2015, Документальный, HDTV 1080i] National Geographic

Страницы:  1

Ответить
Автор
Сообщение

Last Battle

Top User 06

Стаж: 12 лет

Сообщений: 797

Last Battle · 21-Янв-17 21:41 (2 года 4 месяца назад, ред. 21-Янв-17 21:41)

Дикие острова: Невиданные острова / Unseen Islands
Год выпуска: 2015
Страна: Великобритания
Студия: Warehouse 51 Productions, Redfern Natural History Productions, Sky Vision
Жанр: Документальный
Продолжительность: 2 x ~00:44:00
Перевод: Профессиональный (дублированный)
Доп. инфо о переводе: Студия "Велес"
Русские субтитры: нет
Режиссер: Стюарт МакФерсон / Stewart McPherson
Описание: До ближайшего населённого пункта тысячи километров.Эти скалы, разбросанные по семи морям, в числе самых удалённых мест на Земле. Но жизнь здесь кипит. Город пингвинов по населению не уступает Вашингтону, океан вокруг полон жизни. Края с жестокими нравами, где безобидные птицы становятся кровопийцами. Берега, на которых заканчиваются кругосветные путешествия и начинается новая жизнь. У этих островов есть кое-что общее, всё это британские заморские территории. Их жизнь до сих пор остаётся тайной. Давайте отправимся в путешествие и вместе мы раскроем секреты природы этих островов. Мы пройдём через южную Атлантику от ледяных пустынь Антарктиды к экватору. Побываем на островах известных лишь немногим.
Доп. информация: Релиз
и
Запись с польского канала NatGeo WILD HD - Sante
Сведение русской дорожки - HidalgoDQ
Сведение английской дорожки, а так же автор постера - nyctalus
Сэмпл: http://multi-up.com/1136805
Тип релиза: HDTV 1080i
Контейнер: TS
Видео: 1920x1080 at 25.000 fps, MPEG-4 AVC, ~7478 kbps avg
Аудио: Русский: 48 kHz, AC3, 2/0 (L,R) ch, ~192.00 kbps avg |Дубляж, Студия "Велес", текст читает Олег Белов|
Аудио 2: English: 48 kHz, AC3, 2/0 (L,R) ch, ~192.00 kbps avg |Narrator Stuart McQuarrie|
Содержание
01. Атлантический ковчег / Atlantic Arks
На британских территориях можно встретить дроздов, черепах с чуткой ориентацией в пространстве и разных уникальных морских птиц.
02. Частицы рая / Fragments Of Paradise
Посетите нетронутые земли архипелага Чагос и познакомьтесь с рыбой-попугаем, огромными крабами и ярко-голубой ящерицей.
MediaInfo
Общее
Идентификатор : 1 (0x1)
Полное имя : 01.Atlantic.Arks.Rus.Eng_HDCLUB.ts
Формат : MPEG-TS
Размер файла : 2,54 Гбайт
Продолжительность : 43 м. 56 с.
Режим общего битрейта : Переменный
Общий поток : 8275 Кбит/сек
Максимальный общий битрейт : 35,5 Мбит/сек
Видео
Идентификатор : 4113 (0x1011)
Идентификатор меню : 1 (0x1)
Формат : AVC
Формат/Информация : Advanced Video Codec
Профиль формата : [email protected]
Параметр CABAC формата : Да
Параметр ReFrames формата : 4 кадра
Идентификатор кодека : 27
Продолжительность : 43 м. 56 с.
Вид битрейта : Переменный
Битрейт : 7478 Кбит/сек
Максимальный битрейт : 40,0 Мбит/сек
Ширина : 1920 пикселей
Высота : 1080 пикселей
Соотношение сторон : 16:9
Частота кадров : 25,000 кадров/сек
Цветовое пространство : YUV
Субдискретизация насыщенности : 4:2:0
Битовая глубина : 8 бит
Тип развёртки : Чересстрочная
Метод сохранения типа развёртки : Раздельные поля
Порядок развёртки : Верхнее поле первое
Бит/(Пиксели*Кадры) : 0.144
Размер потока : 2,29 Гбайт (90%)
Цветовой диапазон : Limited
Основные цвета : BT.709
Характеристики трансфера : BT.709
Коэффициенты матрицы : BT.709
Аудио #1
Идентификатор : 4352 (0x1100)
Идентификатор меню : 1 (0x1)
Формат : AC-3
Формат/Информация : Audio Coding 3
Расширение режима : CM (complete main)
Параметр Endianness формата : Big
Идентификатор кодека : 129
Продолжительность : 43 м. 56 с.
Вид битрейта : Постоянный
Битрейт : 192 Кбит/сек
Каналы : 2 канала
Расположение каналов : Front: L R
Частота : 48,0 КГц
Частота кадров : 31,250 кадров/сек (1536 spf)
Битовая глубина : 16 бит
Метод сжатия : С потерями
Размер потока : 60,3 Мбайт (2%)
Язык : Russian
Аудио #2
Идентификатор : 4353 (0x1101)
Идентификатор меню : 1 (0x1)
Формат : AC-3
Формат/Информация : Audio Coding 3
Расширение режима : CM (complete main)
Параметр Endianness формата : Big
Идентификатор кодека : 129
Продолжительность : 43 м. 56 с.
Вид битрейта : Постоянный
Битрейт : 192 Кбит/сек
Каналы : 2 канала
Расположение каналов : Front: L R
Частота : 48,0 КГц
Частота кадров : 31,250 кадров/сек (1536 spf)
Битовая глубина : 16 бит
Метод сжатия : С потерями
Размер потока : 60,3 Мбайт (2%)
Язык : English
Скриншоты
Download
Для скачивания .torrent файлов необходима регистрация
Сайт не распространяет и не хранит электронные версии произведений, а лишь предоставляет доступ к создаваемому пользователями каталогу ссылок на торрент-файлы, которые содержат только списки хеш-сумм
[Профиль]  [ЛС] 
 
Ответить
Loading...
Error