[RM] [restored] [declipped] [16/44] (Electronic, Trip Hop) Morcheeba - Дискография - 1996-2018, FLAC (tracks+.cue)

Страницы:  1

Ответить
Автор
Сообщение

Лисной Йожыг

Стаж: 10 лет 9 месяцев

Сообщений: 922

Лисной Йожыг · 25-Май-17 14:58 (2 года 1 месяц назад, ред. 03-Июл-18 11:58)


Жанр: Electronic, Trip Hop
Год выпуска: 1996-2018
Аудио кодек: FLAC
Тип рипа: tracks+.cue
Формат раздачи: 16/44
Продолжительность: 08:56:49
Наличие сканов в содержимом раздачи: нет
Исходник для обработки: Who Can You Trust?; Big Calm; Fragments of Freedom; Charango; The Antidote; Dive Deep; Blood Like Lemonade; Skye | Ross; Blaze Away
Обработка: Устранение клиппинга, восстановление динамического диапазона.

Studio albums
1996 - Who Can You Trust?
01. Moog Island (5:22)
02. Trigger Hippie (5:32)
03. Post Houmous (1:49)
04. Tape Loop (4:23)
05. Never an Easy Way (6:42)
06. Howling (3:41)
07. Small Town (5:09)
08. Enjoy the Wait (1:07)
09. Col (4:09)
10. Who Can You Trust? (8:56)
11. Almost Done (6:39)
12. End Theme (2:30)
13. The Music That We Hear (Moog Island) [bonus track] (3:50)
14. Trigger Hippie [newcheeba mix] [bonus track] (4:01)
15. Tape Loop [shortcheeba mix] [bonus track] (3:49)
Исходное издание: China Records – WPCR-1219
Обработка: Проведены деклиппинг и декомпрессия.

Спектр, АЧХ, Уровень записи, Динамический диапазон
Код:
foobar2000 1.3.9 / Замер динамического диапазона (DR) 1.1.1
Дата отчёта: 2017-05-22 08:16:53
--------------------------------------------------------------------------------
Анализ:   Morcheeba / Who Can You Trust?
--------------------------------------------------------------------------------
DR         Пики          RMS        Продолжительность трека
--------------------------------------------------------------------------------
DR13      -1.18 дБ   -17.69 дБ      5:22 1-Moog Island
DR11      -0.89 дБ   -14.08 дБ      5:32 2-Trigger Hippie
DR12      -1.02 дБ   -14.93 дБ      1:49 3-Post Houmous
DR12      -0.55 дБ   -14.32 дБ      4:23 4-Tape Loop
DR12      -0.85 дБ   -15.15 дБ      6:42 5-Never an Easy Way
DR12      -1.16 дБ   -15.11 дБ      3:41 6-Howling
DR13      -0.73 дБ   -15.66 дБ      5:09 7-Small Town
DR10      -3.66 дБ   -20.83 дБ      1:07 8-Enjoy the Wait
DR11      -7.10 дБ   -21.79 дБ      4:09 9-Col
DR13      -1.34 дБ   -17.14 дБ      8:56 10-Who Can You Trust?
DR13      -0.77 дБ   -15.94 дБ      6:39 11-Almost Done
DR12      -0.85 дБ   -15.18 дБ      2:30 12-End Theme
DR12      -0.50 дБ   -14.17 дБ      3:50 13-The Music That We Hear (Moog Island) [bonus track]
DR14      -1.15 дБ   -17.11 дБ      4:01 14-Trigger Hippie [newcheeba mix] [bonus track]
DR13      -0.58 дБ   -14.88 дБ      3:49 15-Tape Loop [shortcheeba mix] [bonus track]
--------------------------------------------------------------------------------
Количество треков: 15
Реальные значения DR: DR12
Частота:  44100 Гц
Каналов:  2
Разрядность:   16
Битрейт:  669 кбит/с
Кодек:   FLAC
1998 - Big Calm
01. The Sea (5:48)
02. Shoulder Holster (4:05)
03. Part of the Process (4:25)
04. Blindfold (4:39)
05. Let Me See (4:21)
06. Bullet Proof (4:13)
07. Over and Over (2:21)
08. Friction (4:14)
09. Diggin' a Watery Grave (1:36)
10. Fear and Love (5:05)
11. Big Calm (6:00)
Исходное издание: Indochina ‎– 3984-22244-2
Обработка: Проведены деклиппинг и декомпрессия.

Спектр, АЧХ, Уровень записи, Динамический диапазон
Код:
foobar2000 1.3.9 / Замер динамического диапазона (DR) 1.1.1
Дата отчёта: 2017-05-22 08:28:31
--------------------------------------------------------------------------------
Анализ:   Morcheeba / Big Calm
--------------------------------------------------------------------------------
DR         Пики          RMS        Продолжительность трека
--------------------------------------------------------------------------------
DR12      -1.17 дБ   -16.27 дБ      5:48 1-The Sea
DR12      -1.44 дБ   -15.11 дБ      4:05 2-Shoulder Holster
DR11      -1.44 дБ   -14.49 дБ      4:25 3-Part of the Process
DR12      -1.39 дБ   -15.55 дБ      4:39 4-Blindfold
DR12      -0.50 дБ   -14.66 дБ      4:21 5-Let Me See
DR14      -1.20 дБ   -16.95 дБ      4:13 6-Bullet Proof
DR11      -3.13 дБ   -18.81 дБ      2:21 7-Over and Over
DR12      -1.42 дБ   -15.52 дБ      4:14 8-Friction
DR10      -4.17 дБ   -18.41 дБ      1:36 9-Diggin' a Watery Grave
DR12      -1.70 дБ   -17.10 дБ      5:05 10-Fear and Love
DR14      -0.82 дБ   -16.82 дБ      6:00 11-Big Calm
--------------------------------------------------------------------------------
Количество треков: 11
Реальные значения DR: DR12
Частота:  44100 Гц
Каналов:  2
Разрядность:   16
Битрейт:  782 кбит/с
Кодек:   FLAC
2000 - Fragments of Freedom
01. World Looking in (4:07)
02. Rome Wasn't Built in a Day (3:35)
03. Love is Rare (4:05)
04. Let it Go (4:43)
05. A Well Deserved Break (2:14)
06. Love Sweet Love [feat. Mr Complex] (3:59)
07. In the Hands of the Godz [feat. Biz Markie] (1:43)
08. Shallow End (3:53)
09. Be Yourself (3:16)
10. Coming Down Gently (4:21)
11. Good Girl Down [feat. Bahamadia] (3:27)
12. Fragments of Freedom (5:08)
13. Frogmarched to Freedom [bonus track] (5:01)
Исходное издание: China Records Ltd. ‎– WPCR10760
Обработка: Проведены деклиппинг и декомпрессия.

Спектр, АЧХ, Уровень записи, Динамический диапазон
Код:
foobar2000 1.3.9 / Замер динамического диапазона (DR) 1.1.1
Дата отчёта: 2017-05-22 08:44:50
--------------------------------------------------------------------------------
Анализ:   Morcheeba / Fragments of Freedom
--------------------------------------------------------------------------------
DR         Пики          RMS        Продолжительность трека
--------------------------------------------------------------------------------
DR13      -1.09 дБ   -16.26 дБ      4:07 1-World Looking in
DR11      -0.76 дБ   -13.77 дБ      3:35 2-Rome Wasn't Built in a Day
DR14      -0.74 дБ   -16.73 дБ      4:05 3-Love is Rare
DR11      -1.33 дБ   -15.86 дБ      4:43 4-Let it Go
DR14      -4.19 дБ   -19.49 дБ      2:14 5-A Well Deserved Break
DR12      -0.87 дБ   -15.06 дБ      3:59 6-Love Sweet Love [feat. Mr Complex]
DR14      -1.01 дБ   -16.77 дБ      1:43 7-In the Hands of the Godz [feat. Biz Markie]
DR13      -0.50 дБ   -14.99 дБ      3:53 8-Shallow End
DR12      -0.51 дБ   -14.85 дБ      3:16 9-Be Yourself
DR12      -1.51 дБ   -14.74 дБ      4:21 10-Coming Down Gently
DR12      -0.99 дБ   -15.04 дБ      3:27 11-Good Girl Down [feat. Bahamadia]
DR13      -0.94 дБ   -15.63 дБ      5:08 12-Fragments of Freedom
DR13      -0.80 дБ   -14.96 дБ      5:01 13-Frogmarched to Freedom [bonus track]
--------------------------------------------------------------------------------
Количество треков: 13
Реальные значения DR: DR13
Частота:  44100 Гц
Каналов:  2
Разрядность:   16
Битрейт:  890 кбит/с
Кодек:   FLAC
2002 - Charango
01. Slow Down (4:12)
02. Otherwise (3:42)
03. Aqualung (3:24)
04. São Paulo (4:29)
05. Charango [feat. Pace Won] (4:03)
06. What New York Couples Fight About [feat. Kurt Wagner] (6:15)
07. Undress Me Now (3:24)
08. Way Beyond (3:34)
09. Women Lose Weight [feat. Slick Rick] (4:17)
10. Get Along [feat. Pace Won] (3:47)
11. Public Displays of Affection (3:09)
12. The Great London Traffic Warden Massacre [feat. Miriam Stockley and Michael Dove] (3:04)
Исходное издание: China Records ‎– SAM00626
Обработка: Проведены деклиппинг и декомпрессия.

Спектр, АЧХ, Уровень записи, Динамический диапазон
Код:
foobar2000 1.3.9 / Замер динамического диапазона (DR) 1.1.1
Дата отчёта: 2017-05-22 20:36:41
--------------------------------------------------------------------------------
Анализ:   Morcheeba / Charango
--------------------------------------------------------------------------------
DR         Пики          RMS        Продолжительность трека
--------------------------------------------------------------------------------
DR11      -0.50 дБ   -14.02 дБ      4:12 1-Slow Down
DR12      -0.76 дБ   -14.96 дБ      3:42 2-Otherwise
DR12      -0.50 дБ   -14.81 дБ      3:24 3-Aqualung
DR11      -0.63 дБ   -13.53 дБ      4:29 4-São Paulo
DR13      -0.74 дБ   -16.14 дБ      4:03 5-Charango [feat. Pace Won]
DR12      -0.60 дБ   -15.94 дБ      6:15 6-What New York Couples Fight About [feat. Kurt Wagner]
DR12      -1.51 дБ   -15.70 дБ      3:24 7-Undress Me Now
DR12      -0.51 дБ   -14.51 дБ      3:34 8-Way Beyond
DR12      -0.63 дБ   -14.27 дБ      4:17 9-Women Lose Weight [feat. Slick Rick]
DR11      -0.86 дБ   -14.43 дБ      3:47 10-Get Along [feat. Pace Won]
DR11      -1.04 дБ   -14.45 дБ      3:09 11-Public Displays of Affection
DR13      -0.63 дБ   -14.96 дБ      3:04 12-The Great London Traffic Warden Massacre [feat. Miriam Stockley and Michael Dove]
--------------------------------------------------------------------------------
Количество треков: 12
Реальные значения DR: DR12
Частота:  44100 Гц
Каналов:  2
Разрядность:   16
Битрейт:  831 кбит/с
Кодек:   FLAC
2005 - The Antidote
01. Wonders Never Cease (4:13)
02. Ten Men (4:14)
03. Everybody Loves a Loser (4:36)
04. Like a Military Coup (3:18)
05. Living Hell (5:52)
06. People Carrier (4:21)
07. Lighten Up (4:12)
08. Daylight Robbery (2:51)
09. Antidote (6:20)
10. God Bless and Goodbye (4:24)
Исходное издание: Союз ‎– ECHCD65
Обработка: Проведены деклиппинг и декомпрессия.

Спектр, АЧХ, Уровень записи, Динамический диапазон
Код:
foobar2000 1.3.9 / Замер динамического диапазона (DR) 1.1.1
Дата отчёта: 2017-05-22 20:41:00
--------------------------------------------------------------------------------
Анализ:   Morcheeba / The Antidote
--------------------------------------------------------------------------------
DR         Пики          RMS        Продолжительность трека
--------------------------------------------------------------------------------
DR12      -0.49 дБ   -14.04 дБ      4:13 1-Wonders Never Cease
DR11      -0.58 дБ   -13.40 дБ      4:14 2-Ten Men
DR12      -0.50 дБ   -13.37 дБ      4:36 3-Everybody Loves a Loser
DR11      -1.47 дБ   -15.93 дБ      3:18 4-Like a Military Coup
DR11      -0.50 дБ   -13.32 дБ      5:52 5-Living Hell
DR12      -0.50 дБ   -13.80 дБ      4:21 6-People Carrier
DR12      -0.50 дБ   -13.73 дБ      4:12 7-Lighten Up
DR12      -0.52 дБ   -14.16 дБ      2:51 8-Daylight Robbery
DR12      -0.50 дБ   -13.98 дБ      6:20 9-Antidote
DR13      -0.50 дБ   -14.69 дБ      4:24 10-God Bless and Goodbye
--------------------------------------------------------------------------------
Количество треков: 10
Реальные значения DR: DR12
Частота:  44100 Гц
Каналов:  2
Разрядность:   16
Битрейт:  899 кбит/с
Кодек:   FLAC
2007 - Dive Deep
01. Enjoy the Ride [feat. Judy Tzuke] (4:03)
02. Riverbed [feat. Thomas Dybdahl] (5:24)
03. Thumbnails (2:35)
04. Run Honey Run [feat. Bradley] (3:43)
05. Gained the World [feat. Manda] (2:55)
06. One Love Karma (3:31)
07. Au Dela [feat. Manda] (2:14)
08. Blue Chair [feat. Judy Tzuke] (4:07)
09. Sleep on It [feat. Thomas Dybdahl] (5:33)
10. Hemphasis (5:28)
11. Flowers [feat. Manda] (4:06)
12. Washed Away [feat. Thomas Dybdahl] (4:22)
13. The Ledge Beyond the Edge (2:05)
Исходное издание: Chrysalis Music Group USA ‎– none
Обработка: Проведены деклиппинг и декомпрессия.

Спектр, АЧХ, Уровень записи, Динамический диапазон
Код:
foobar2000 1.3.9 / Замер динамического диапазона (DR) 1.1.1
Дата отчёта: 2017-05-22 20:45:51
--------------------------------------------------------------------------------
Анализ:   Morcheeba / Dive Deep
--------------------------------------------------------------------------------
DR         Пики          RMS        Продолжительность трека
--------------------------------------------------------------------------------
DR11      -1.74 дБ   -14.08 дБ      4:03 1-Enjoy the Ride [feat. Judy Tzuke]
DR11      -3.03 дБ   -17.55 дБ      5:24 2-Riverbed [feat. Thomas Dybdahl]
DR12      -2.12 дБ   -16.77 дБ      2:35 3-Thumbnails
DR13      -0.85 дБ   -15.27 дБ      3:43 4-Run Honey Run [feat. Bradley]
DR12      -1.17 дБ   -15.30 дБ      2:55 5-Gained the World [feat. Manda]
DR12      -1.00 дБ   -14.43 дБ      3:31 6-One Love Karma
DR11      -7.05 дБ   -20.29 дБ      2:14 7-Au Dela [feat. Manda]
DR12      -2.24 дБ   -16.14 дБ      4:07 8-Blue Chair [feat. Judy Tzuke]
DR13      -1.50 дБ   -16.21 дБ      5:33 9-Sleep on It [feat. Thomas Dybdahl]
DR13      -1.10 дБ   -16.54 дБ      5:28 10-Hemphasis
DR13      -1.55 дБ   -16.34 дБ      4:06 11-Flowers [feat. Manda]
DR12      -2.50 дБ   -16.62 дБ      4:22 12-Washed Away [feat. Thomas Dybdahl]
DR13      -1.37 дБ   -16.89 дБ      2:05 13-The Ledge Beyond the Edge
--------------------------------------------------------------------------------
Количество треков: 13
Реальные значения DR: DR12
Частота:  44100 Гц
Каналов:  2
Разрядность:   16
Битрейт:  768 кбит/с
Кодек:   FLAC
2010 - Blood Like Lemonade
01. Crimson (5:10)
02. Even Though (4:18)
03. Blood Like Lemonade (4:51)
04. Mandala (2:40)
05. I Am the spring (3:27)
06. Recipe for Disaster (5:19)
07. Easier Said Than Done (3:41)
08. Cut to the Chase (4:18)
09. Self Made Man (5:09)
10. Beat of the Drum (6:19)
11. Straight Ahead Master [bonus track] (3:26)
12. I Am the Spring [acoustic version] [bonus track] (3:24)
13. Blood Like Lemonade [acoustic version] [bonus track] (4:32)
14. Even Though [acoustic version] [bonus track] (3:32)
15. Recipe for Disaster [acoustic version] [bonus track] (4:24)
16. Crimson [acoustic version] [bonus track] (4:51)
Исходное издание: [PIAS] Recordings – PIASR 201 CD + iTunes
Обработка: Проведены деклиппинг и декомпрессия.

Примечание: Бонус-треки 12-16 взяты из iTunes.
Спектр, АЧХ, Уровень записи, Динамический диапазон
Код:
foobar2000 1.3.9 / Замер динамического диапазона (DR) 1.1.1
Дата отчёта: 2017-05-25 14:12:13
--------------------------------------------------------------------------------
Анализ:   Morcheeba / Blood Like Lemonade
--------------------------------------------------------------------------------
DR         Пики          RMS        Продолжительность трека
--------------------------------------------------------------------------------
DR13      -0.62 дБ   -15.72 дБ      5:10 1-Crimson
DR12      -0.48 дБ   -14.62 дБ      4:18 2-Even Though
DR13      -0.66 дБ   -14.88 дБ      4:51 3-Blood Like Lemonade
DR14      -1.09 дБ   -18.16 дБ      2:40 4-Mandala
DR12      -6.60 дБ   -21.24 дБ      3:27 5-I Am the spring
DR13      -1.42 дБ   -16.12 дБ      5:19 6-Recipe for Disaster
DR15      -1.31 дБ   -18.75 дБ      3:41 7-Easier Said Than Done
DR12      -1.15 дБ   -15.49 дБ      4:18 8-Cut to the Chase
DR14      -1.09 дБ   -16.24 дБ      5:09 9-Self Made Man
DR13      -0.71 дБ   -15.49 дБ      6:19 10-Beat of the Drum
DR12      -0.72 дБ   -14.64 дБ      3:26 11-Straight Ahead Master [bonus track]
DR11      -1.50 дБ   -15.36 дБ      3:24 12-I Am the Spring [acoustic version] [bonus track]
DR11      -1.50 дБ   -15.10 дБ      4:32 13-Blood Like Lemonade [acoustic version] [bonus track]
DR12      -1.50 дБ   -17.42 дБ      3:32 14-Even Though [acoustic version] [bonus track]
DR12      -1.50 дБ   -18.08 дБ      4:24 15-Recipe for Disaster [acoustic version] [bonus track]
DR13      -1.50 дБ   -19.11 дБ      4:51 16-Crimson [acoustic version] [bonus track]
--------------------------------------------------------------------------------
Количество треков: 16
Реальные значения DR: DR13
Частота:  44100 Гц
Каналов:  2
Разрядность:   16
Битрейт:  638 кбит/с
Кодек:   FLAC
2013 - Head Up High
01. Gimme Your Love (4:51)
02. Face of Danger [feat. Chali 2na] (3:57)
03. Call It Love [feat. James Petralli] (3:59)
04. Under the Ice (3:41)
05. I'll Fall Apart [feat. James Petralli] (2:07)
06. Make Believer (3:41)
07. Release Me Now [feat. Nature Boy Jim Kelly] (4:09)
08. To Be [feat. Rizzle Kicks] (4:39)
09. Hypnotized [feat. Anna Tijoux] (4:03)
10. To the Grace (5:13)
11. Do You Good (3:34)
12. Finally Found You (4:25)
13. Whirlwind [bonus track] (3:32)
Исходное издание: [PIAS] Recordings – PIASR355CDX
Обработка: Проведены деклиппинг и декомпрессия.

Примечание: Бонус-трек взят из iTunes.
Спектр, АЧХ, Уровень записи, Динамический диапазон
Код:
foobar2000 1.3.9 / Замер динамического диапазона (DR) 1.1.1
Дата отчёта: 2017-05-25 14:17:36
--------------------------------------------------------------------------------
Анализ:   Morcheeba / Head Up High
--------------------------------------------------------------------------------
DR         Пики          RMS        Продолжительность трека
--------------------------------------------------------------------------------
DR12      -1.36 дБ   -14.89 дБ      4:51 1-Gimme Your Love
DR12      -0.73 дБ   -13.73 дБ      3:57 2-Face of Danger [feat. Chali 2na]
DR12      -1.03 дБ   -15.61 дБ      3:59 3-Call It Love [feat. James Petralli]
DR12      -1.18 дБ   -15.54 дБ      3:41 4-Under the Ice
DR12      -3.55 дБ   -19.38 дБ      2:07 5-I'll Fall Apart [feat. James Petralli]
DR12      -0.92 дБ   -15.28 дБ      3:41 6-Make Believer
DR11      -1.61 дБ   -14.79 дБ      4:09 7-Release Me Now [feat. Nature Boy Jim Kelly]
DR12      -1.08 дБ   -14.89 дБ      4:39 8-To Be [feat. Rizzle Kicks]
DR13      -0.50 дБ   -14.73 дБ      4:03 9-Hypnotized [feat. Anna Tijoux]
DR11      -0.97 дБ   -14.37 дБ      5:13 10-To the Grace
DR12      -0.66 дБ   -15.78 дБ      3:34 11-Do You Good
DR13      -0.75 дБ   -16.35 дБ      4:25 12-Finally Found You
DR12      -1.10 дБ   -14.23 дБ      3:32 13-Whirlwind [bonus track]
--------------------------------------------------------------------------------
Количество треков: 13
Реальные значения DR: DR12
Частота:  44100 Гц
Каналов:  2
Разрядность:   16
Битрейт:  801 кбит/с
Кодек:   FLAC
2018 - Blaze Away
01. Never Undo (3:45)
02. Blaze Away [feat. Roots Manuva] (4:04)
03. Love Dub (3:49)
04. It's Summertime (3:39)
05. Sweet L.A. (2:42)
06. Paris Sur Mer [feat. Benjamin Biolay] (4:33)
07. Find Another Way (3:31)
08. Set Your Sails (3:27)
09. Free of Debris (1:04)
10. Mezcal Dream [feat. Amanda Zamolo] (4:46)
Исходное издание: Fly Agaric Records ‎– FAR004CD
Обработка: Проведены деклиппинг и декомпрессия.

Спектр, АЧХ, Уровень записи, Динамический диапазон
Код:
foobar2000 1.3.9 / Замер динамического диапазона (DR) 1.1.1
Дата отчёта: 2018-07-02 22:45:57
--------------------------------------------------------------------------------
Анализ:   Morcheeba / Blaze Away
--------------------------------------------------------------------------------
DR         Пики          RMS        Продолжительность трека
--------------------------------------------------------------------------------
DR10      -0.68 дБ   -12.59 дБ      3:45 1-Never Undo
DR9       -0.64 дБ   -10.85 дБ      4:04 2-Blaze Away [feat. Roots Manuva]
DR9       -0.58 дБ   -11.42 дБ      3:49 3-Love Dub
DR10      -0.79 дБ   -12.08 дБ      3:39 4-It's Summertime
DR9       -3.32 дБ   -14.67 дБ      2:42 5-Sweet L.A.
DR10      -0.80 дБ   -12.13 дБ      4:33 6-Paris Sur Mer [feat. Benjamin Biolay]
DR10      -0.61 дБ   -12.56 дБ      3:31 7-Find Another Way
DR9       -0.50 дБ   -11.72 дБ      3:27 8-Set Your Sails
DR8       -2.97 дБ   -13.42 дБ      1:04 9-Free of Debris
DR9       -0.74 дБ   -12.05 дБ      4:46 10-Mezcal Dream [feat. Amanda Zamolo]
--------------------------------------------------------------------------------
Количество треков: 10
Реальные значения DR: DR9
Частота:  44100 Гц
Каналов:  2
Разрядность:   16
Битрейт:  810 кбит/с
Кодек:   FLAC
Skye | Ross
2016 - Skye | Ross
01. Repay the Saviour (2:12)
02. Light of Gold (3:35)
03. All My Days (4:32)
04. How to Fly (3:16)
05. Clear My Mind (3:03)
06. Hold on (4:30)
07. Medicine (3:16)
08. Feet First (5:24)
09. Head Home (2:00)
10. The Point of No Return (6:28)
Исходное издание: Fly Agaric Records – none
Обработка: Проведены деклиппинг и декомпрессия.

Спектр, АЧХ, Уровень записи, Динамический диапазон
Код:
foobar2000 1.3.9 / Замер динамического диапазона (DR) 1.1.1
Дата отчёта: 2017-05-22 21:01:32
--------------------------------------------------------------------------------
Анализ:   Skye | Ross / Skye | Ross
--------------------------------------------------------------------------------
DR         Пики          RMS        Продолжительность трека
--------------------------------------------------------------------------------
DR9       -3.02 дБ   -15.65 дБ      2:12 1-Repay the Saviour
DR11      -0.41 дБ   -12.89 дБ      3:35 2-Light of Gold
DR11      -1.00 дБ   -13.58 дБ      4:32 3-All My Days
DR10      -1.46 дБ   -13.41 дБ      3:16 4-How to Fly
DR12      -4.77 дБ   -18.95 дБ      3:03 5-Clear My Mind
DR11      -0.76 дБ   -13.82 дБ      4:30 6-Hold on
DR11      -2.28 дБ   -14.90 дБ      3:16 7-Medicine
DR10      -0.82 дБ   -13.12 дБ      5:24 8-Feet First
DR11      -4.14 дБ   -17.50 дБ      2:00 9-Head Home
DR11      -1.25 дБ   -14.25 дБ      6:28 10-The Point of No Return
--------------------------------------------------------------------------------
Количество треков: 10
Реальные значения DR: DR11
Частота:  44100 Гц
Каналов:  2
Разрядность:   16
Битрейт:  764 кбит/с
Кодек:   FLAC
Misc.
Внеальбомные композиции
Can't Stand It (3:22)
Dungeness (5:24)
I'd Rather Kill Us (Than Watch You Leave) (4:55)
On the Rhodes Again (7:02)
Ray Payola [curly wurly mix] (8:03)
Summertime [C12 mix] [George Gershwin cover] (3:30)
What's Your Name [feat. Big Daddy Kane] (3:55)
Обработка: Проведены деклиппинг и декомпрессия и материала.
Примечание: Данные треки взяты из разных мест. В тегах указана дополнительная информация.
Дополнительная информация
Обработка: Adobe Audition с плагинами Stereo Tool, Acon Digital Declip, Fabfilter Pro-L, Fabfilter Pro-Q2, Flux:: Solera, Flux:: Syrah.
Мониторинг результата:
Стационарная аппаратура: NAD D 1050 + Beyerdynamic DT 990 Pro и Rotel RA-10 + Jamo C603
Мобильная аппаратура: Meizu MX2 + Sennheiser CX 980
Примечание: Деклиппинг и восстановление динамического диапазона - не панацея от некачественной записи. Целью реставрации является меньшая усталость при прослушивании, и звучание, приближенное к тому, которое задумывалось звукорежиссером, до вмешательства маркетологов.
Материалы по теме "Война громкости": 1, 2, 3, 4

Раздача Skye Edwards
Другие раздачи в рамках проекта можно найти здесь
02.07.2018: Добавлен альбом "Blaze Away"
Download
Для скачивания .torrent файлов необходима регистрация
Сайт не распространяет и не хранит электронные версии произведений, а лишь предоставляет доступ к создаваемому пользователями каталогу ссылок на торрент-файлы, которые содержат только списки хеш-сумм
[Профиль]  [ЛС] 

McServik

Стаж: 8 лет 1 месяц

Сообщений: 245

McServik · 14-Июн-17 00:12 (спустя 19 дней, ред. 14-Июн-17 00:12)

подпишусь. отличная группа. отличная музыка. отличная раздача. спасибо.
что-то не нашёл в мп3... есть ли на рутракере?
Even Though из BLL - просто бесподобно
[Профиль]  [ЛС] 

Лисной Йожыг

Стаж: 10 лет 9 месяцев

Сообщений: 922

Лисной Йожыг · 14-Июн-17 08:00 (спустя 7 часов, ред. 14-Июн-17 08:00)

McServik, mp3 есть только в таком виде
[Профиль]  [ЛС] 

McServik

Стаж: 8 лет 1 месяц

Сообщений: 245

McServik · 14-Июн-17 21:50 (спустя 13 часов, ред. 14-Июн-17 21:50)

Лисной Йожыг,
спасыбА, Йожыг
скрытый текст
чисто моё "имхо", "чёрненькая" она без "двух лысиков из Gained The World" - ноль, ибо музыку делать (при всех её данных) - это не в руку каку делать.
[Профиль]  [ЛС] 

nixon75

Стаж: 7 лет 6 месяцев

Сообщений: 2


nixon75 · 18-Июн-17 15:09 (спустя 3 дня)

"Declipped and decompressed version" ?
"Eliminating clipping" : how do you do that in any meaningful way without access to the master tapes? You can never replace what has been clipped. You have just narrowed the band. I call shenanigans.
[Профиль]  [ЛС] 

tilimilitramdija

Стаж: 9 лет 5 месяцев

Сообщений: 102

tilimilitramdija · 07-Июл-17 16:38 (спустя 19 дней)

Лисной Йожыг
Грибных полян тебе, Йожиг Благодарю
[Профиль]  [ЛС] 

Братья Загашенные

Стаж: 2 года 8 месяцев

Сообщений: 1253

Братья Загашенные · 21-Июл-17 16:18 (спустя 13 дней, ред. 21-Июл-17 16:18)

Объясните, господа, вкратце (если такое вообще возможно по данной тематике) плёхо понимающему (да совсем почти не понимающему, чего уж тут "прибедняться") в вопросах алгебры и построения графиков функций: а вот когда, допустим, foobar'овский replaygain "напускаешь", он не то же ли самое делает (пытается сделать) с файликами, заботливо перегруженными производителями CD? Или тут совсем другая песня?
[Профиль]  [ЛС] 

Лисной Йожыг

Стаж: 10 лет 9 месяцев

Сообщений: 922

Лисной Йожыг · 23-Июл-17 10:32 (спустя 1 день 18 часов)

Братья Загашенные, вкратце, всё очень просто: foobar'овский replaygain берет из тега заявленную циферку громкости (к примеру, - 2 dB), и изменяет громкость трека/альбома на указанную величину. На этом, его работа заканчивается. RG - ручка громкости для трека/альбома.
ReplayGain было удобно использовать для создания различного вида сборников, где, частенько попадались треки с разной громкостью. Проставляя в тегах разные значения ReplayGain можно было "нормализовать" громкость песен в сборнике.
Перегрузку сигнала, клиппинг и другие "радости" современного мастеринга RG никак не меняет, а уменьшение искажений при воспроизведении обусловлено тем, что аппаратура при воспроизведении искажений с сигналом с граничными показателями (0 dB или выше) не добавляла собственных искажений.
[Профиль]  [ЛС] 

raoulx

Стаж: 12 лет

Сообщений: 306

raoulx · 25-Июл-17 13:42 (спустя 2 дня 3 часа, ред. 25-Июл-17 13:42)

Лисной Йожыг
Спасибо за труды, дружище.
Небольшой вопрос есть. Убитый саунд уже не восстановить, не имея исходника, но улучшить впечатления от прослушивания без зашкаленных, хрипящих на износ частот все же можно, я верно уловил? Хотя парнишка не согласен судя по всему.
Лисной Йожыг писал(а):
Примечание: Деклиппинг и восстановление динамического диапазона - не панацея от некачественной записи. Целью реставрации является меньшая усталость при прослушивании, и звучание, приближенное к тому, которое задумывалось звукорежиссером, до вмешательства маркетологов.
nixon75 писал(а):
"Declipped and decompressed version" ?
"Eliminating clipping" : how do you do that in any meaningful way without access to the master tapes? You can never replace what has been clipped. You have just narrowed the band. I call shenanigans.
Спасибо еще раз.
[Профиль]  [ЛС] 

Лисной Йожыг

Стаж: 10 лет 9 месяцев

Сообщений: 922

Лисной Йожыг · 25-Июл-17 14:32 (спустя 50 мин.)

raoulx, пожалуйста.
Цитата:
Небольшой вопрос есть. Убитый саунд уже не восстановить, не имея исходника, но улучшить впечатления от прослушивания без зашкаленных, хрипящих на износ частот все же можно, я верно уловил?
Именно так. Я никогда не утверждал, что я "превращаю" запись в оригинал. Я стремлюсь сделать её похожей на то, что было в студии, руководствуясь своим вкусом и здравым смыслом. И конечно же, стремлюсь обрабатывая готовый микс улучшить впечатления от прослушивания. А если получается не очень хорошо, ну, что тут поделать. Для меня обработка звука - это хобби, не несущее никакой материальной выгоды, да и очень часто, материал для обработки представляет собой печальное зрелище.
Цитата:
Хотя парнишка не согласен судя по всему.
Несогласных очень много. Вообще, техническая составляющая музыки (частоты/спектры/биты/герцы и т.д.) для многих являются "священной коровой", которую ни при каких обстоятельствах нельзя изменять. На вопрос "почему нельзя трогать готовый микс?" приводятся религиозно-фанатичные доводы, без зёрен осмысленности. Впрочем, я не очень люблю спорить на околоаудиофильскую тему, т.к. считаю, что это - пустая трата времени и сил. Лучше я попробую привести еще один альбом в порядок, и поделюсь им с теми, кому подобные обработки интересны
[Профиль]  [ЛС] 

Братья Загашенные

Стаж: 2 года 8 месяцев

Сообщений: 1253

Братья Загашенные · 25-Июл-17 14:36 (спустя 3 мин., ред. 25-Июл-17 14:36)

Лисной Йожыг
Спасибо! Про фубар я... почти понял, как мне кажется.))
А вот кстати касательно самого "деклиппинга" заявленного - забавно, но уже прилично успел загонять-заслушать, допустим, всё тот же последний Tape Five в оригинальном, перегруженном варианте (уж больно хорошо под него зарядочкой в лесу заниматься!)), ну и вот щас эпизодически слушаю и "деклиппированный" вариант и... чот вроде былой жырности уже как бы и не хватает! Там-то оно на моей bose'вской колоночке мелкой пыхтело, бумкало, дыхало-пыхало изо всей мочи, а с "прибранным перегрузом" слушаешь - всё как-то чистенько, без былого усёра, и вроде как уже даже скучновато выходит.))
[Профиль]  [ЛС] 

raoulx

Стаж: 12 лет

Сообщений: 306

raoulx · 25-Июл-17 14:40 (спустя 4 мин.)

Лисной Йожыг писал(а):
Несогласных очень много. Вообще, техническая составляющая музыки (частоты/спектры/биты/герцы и т.д.) для многих являются "священной коровой", которую ни при каких обстоятельствах нельзя изменять. На вопрос "почему нельзя трогать готовый микс?" приводятся религиозно-фанатичные доводы, без зёрен осмысленности. Впрочем, я не очень люблю спорить на околоаудиофильскую тему, т.к. считаю, что это - пустая трата времени и сил. Лучше я попробую привести еще один альбом в порядок, и поделюсь им с теми, кому подобные обработки интересны
Споры с аудио-фанатиками определенно не имеют смысла.
Я тоже ценю качество, чем лучше - тем лучше, но логика же в любом деле должна присутствовать. Как у вас
Продолжайте свое полезное дело, кому надо тот оценит.
Братья Загашенные писал(а):
Лисной Йожыг
Спасибо! Про фубар я... почти понял, как мне кажется.))
А вот кстати касательно самого "деклиппинга" заявленного - забавно, но уже прилично успел загонять-заслушать, допустим, всё тот же последний Tape Five в оригинальном, перегруженном варианте (уж больно хорошо под него зарядочкой в лесу заниматься!)), ну и вот щас эпизодически слушаю и "деклиппированный" вариант и... чот вроде былой жырности уже как бы и не хватает! Там-то оно на моей bose'вской колоночке мелкой пыхтело, бумкало, дыхало-пыхало изо всей мочи, а с "прибранным перегрузом" слушаешь - всё как-то чистенько, без былого усёра, и вроде как уже даже скучновато выходит.))
На то и направлен коммерческий мастеринг, я полагаю, что бы пыхтело и бумкало на радость покупателям
[Профиль]  [ЛС] 

Лисной Йожыг

Стаж: 10 лет 9 месяцев

Сообщений: 922

Лисной Йожыг · 25-Июл-17 18:04 (спустя 3 часа, ред. 25-Июл-17 18:04)

Братья Загашенные писал(а):
73570242Лисной Йожыг
А вот кстати касательно самого "деклиппинга" заявленного - забавно, но уже прилично успел загонять-заслушать, допустим, всё тот же последний Tape Five в оригинальном, перегруженном варианте (уж больно хорошо под него зарядочкой в лесу заниматься!)), ну и вот щас эпизодически слушаю и "деклиппированный" вариант и... чот вроде былой жырности уже как бы и не хватает! Там-то оно на моей bose'вской колоночке мелкой пыхтело, бумкало, дыхало-пыхало изо всей мочи, а с "прибранным перегрузом" слушаешь - всё как-то чистенько, без былого усёра, и вроде как уже даже скучновато выходит.))
Дык, перегруженные записи и делаются, чтобы на "bose'вской колоночке мелкой пыхтело, бумкало, дыхало-пыхало изо всей мочи". Там-то оно и играет вполне адекватно для своих возможностей, и на искажения не обращаешь внимания, потому что искажения записи тонут в искажениях аппаратуры.
У меня есть махонькая походная колоночка, и там да, с мобилки реставрированные записи не играют совсем, а если играют - то звук бывает достаточно неприятен. Так и цель применения такой колоночки - пикник в лесу, или что-то подобное. Туда можно и зашкаленный mp3 пустить, пусть хрипит
А вот когда приходит время крутить записи на чем-то более серьёзном, тут-то и понимаешь, что музыка орёт, уши болят, голова гудит от перегруженного звука. Тут-то и начинаешь судорожно искать обходные пути.
Ну и, не в качестве троллинга, а ради понимания сути: многие люди привыкли (и им нравится!) слушать перегруженный, "мясной", "рвущий ухи" звук. Они привыкли к нему, их нормальный звук не штырит уже. Это как, к примеру, ребёнок, привык кушать чипсы/дошираки и т.п. снедь с "зашкаленным" вкусом, и им обычная еда кажется пресной. Но, на самом-то деле, мы понимаем, что дети неправы
raoulx писал(а):
Споры с аудио-фанатиками определенно не имеют смысла.
Я тоже ценю качество, чем лучше - тем лучше, но логика же в любом деле должна присутствовать. Как у вас
Продолжайте свое полезное дело, кому надо тот оценит.
Благодарю. По-возможности, и желанию, буду стараться и дальше проводить свои изыскания. Радует, что медленно, но верно, формируется у людей понимание того, что музыка должна звучать несколько иначе чем сейчас.
[Профиль]  [ЛС] 

Братья Загашенные

Стаж: 2 года 8 месяцев

Сообщений: 1253

Братья Загашенные · 25-Июл-17 21:42 (спустя 3 часа, ред. 25-Июл-17 21:42)

Лисной Йожыг
Да, очень похоже, что так всё и есть.
[Профиль]  [ЛС] 

thev

Стаж: 13 лет

Сообщений: 24


thev · 07-Янв-18 23:45 (спустя 5 месяцев 13 дней)

Спасибо за ваш творческий труд! Однако на моей системе альбом "Head up high" звучит лучше в оригинале, хотя дослушать до конца мне не удается, давит на мозг.
[Профиль]  [ЛС] 

sayonarazetsu67

Стаж: 9 лет 10 месяцев

Сообщений: 58

sayonarazetsu67 · 12-Май-18 17:17 (спустя 4 месяца 4 дня, ред. 12-Май-18 17:17)

Я не школото, что бы обсирать чей либо труд. Тут бесспорно - спасибо!
Но я так понимаю, все эти изыскания по деклипинку исключительно из-за ваших фуфловых Баеров!! Вы вообще на нормальных наушниках слушали результат вашей работы? Где динамика? где ВЧ? Где детализация?.
Йожик, вам пора менять бубняще-цикающзие Баеры на нормальные линейные наушнки. Может тогда и время свое сэкономите на бесполезную работу?
Если у вас 600 омные то вы слушаете уже искаженный звук до такой степени https://reference-audio-analyzer.pro/report/hp/beyerdynamic/beyerdynamic-dt-990-6...fr_impedance.png
А если у вас 250 ом версия то вот такое фуфло у вас на голове - https://reference-audio-analyzer.pro/report/hp/beyerdynamic/beyerdynamic-dt-990-p...fr_impedance.png
Любой кто умеет тыкать на ссылки все поймет, от чего у ув. Йожика проблемы!!
Простите, но Вы не правы вообще ни в чем выше сказанном, все ваши теоретические рассуждение - лишь на основе вашей аппаратуре!!
И мне лично, жаль, что ваши труды напрасны и бессмысленны. Но слушать сие творчество - невозможно.
Лисной Йожыг писал(а):
73571040Лисной Йожыг
Благодарю. По-возможности, и желанию, буду стараться и дальше проводить свои изыскания. Радует, что медленно, но верно, формируется у людей понимание того, что музыка должна звучать несколько иначе чем сейчас.
П.С. Нет. Это просто вы должны поменять свои наушники. У людей все в порядке!!
П.П.П И у вас не восстановление динамического диапазона, а наоборот его сужение!!! Не вводите людей в заблуждение!
[Профиль]  [ЛС] 

Лисной Йожыг

Стаж: 10 лет 9 месяцев

Сообщений: 922

Лисной Йожыг · 12-Май-18 17:26 (спустя 8 мин.)

sayonarazetsu67, спасибо за столь обширный комментарий. Я обязательно к нему прислушаюсь, и сделаю правильные выводы
[Профиль]  [ЛС] 

js08

Стаж: 10 лет 11 месяцев

Сообщений: 201


js08 · 14-Май-18 21:35 (спустя 2 дня 4 часа)

Хм ... С детства не пользовался наушниками. Не интересовался. Не думал, что наушники могут быть такими. Этот горб, вероятно, должен затруднять восприятие частот выше 9 кГц. Лучше бы он был в районе 12-14 кГц. Хотя, при желании наверно можно и таким натренировать уши референсными треками. В случае с 250 Ом горб как бы на месте. Но есть 2-й горб, затрагивающий сибилянты.
Лисной Йожыг, я б на Вашем месте отложил бы всё в сторонку на недельку-другую и просто послушал в своё удовольствие референсные треки. В колонках. На различной громкости.
В наушниках не сводят музыку. В колонках совсем другая панорама.
[Профиль]  [ЛС] 

Лисной Йожыг

Стаж: 10 лет 9 месяцев

Сообщений: 922

Лисной Йожыг · 14-Май-18 23:01 (спустя 1 час 26 мин., ред. 14-Май-18 23:01)

js08, на сайте RA немного другие графики к этим наушникам, да и АЧХ моих наушников подправлена, но, это не суть. И то, что те же DT-770 используются во многих студиях как рабочие лошадки, думаю, вы прекрасно знаете. И даже не важно то, что у вышеотписавшегося слушателя наушники Sennheiser HD580 (АЧХ гуглится за минуту) с каким-то ламповым усилком, судя по всему, с ещё более лютой АЧХ. И ВЧ он не слышит почему-то, хотя, АЧХ не трогалась ни разу. Чюдеса... Да, и комментарий к раздаче Avenged Sevenfold говорит о том, что человеку нравится звук с определённым окрасом. А звук в той раздаче - ещё та трагедия.
Суть в том, что вы с каким-то скрытым удовольствием подхватываете любые негативные комментарии, и предлагаете мне сделать то, или иное. Право, я немного в недоумении. Вы меня таким образом троллите?
Я ценю ваше мнение, вы мне помогли понять пару моментов, которые я делал неправильно, за что вам Спасибо, но, давайте уж без поучений. Хотите помочь делом, давайте перенесём общение в ЛС и будем там общаться предметно. Желаете и дальше постить размышления - так тому и быть.
З.Ы.: Кстати, в этой раздаче использовался экспандер в однополосном режиме.
[Профиль]  [ЛС] 

js08

Стаж: 10 лет 11 месяцев

Сообщений: 201


js08 · 16-Май-18 23:50 (спустя 2 дня)

В моём предложении ни капли сарказма. В наушниках музыку не сводят. Нет оснований применять иной подход и к ремастерингу. Но, повторюсь, если очень хочется, наверно можно. Наверно можно натренировать уши и в наушниках.
Мне без разницы, какие у Вас наушники и колонки. Мониторьте хоть в колонках для смартов, если можете оценить в них глубину сцены, отличить трек с объёмом от трека вымазанного пластилином, воздушные высокие от цыкающих, и прочее. И не возникнет желания улучшить комфортность прослушивания с помощью эквалайзера и плагинов, которыми в пору пластинки начала 20-го века реставрировать.
Лисной Йожыг писал(а):
75353783... АЧХ не трогалась ни разу. Чюдеса...
Чудин Днепр при тихой погоде ... (c)
Не в курсе, что имел в виду sayonarazetsu67. Но если в треке нет воздушных высоких, можно сказать, что их нет. От АЧХ это не зависит.
Лисной Йожыг писал(а):
75353783... за что вам Спасибо ...
Всегда пожалуйста.
[Профиль]  [ЛС] 

Лисной Йожыг

Стаж: 10 лет 9 месяцев

Сообщений: 922

Лисной Йожыг · 02-Июл-18 23:17 (спустя 1 месяц 16 дней)

Обновление
Добавлен альбом "Blaze Away".
[Профиль]  [ЛС] 

vadimplSPb

Стаж: 10 лет 5 месяцев

Сообщений: 262

vadimplSPb · 11-Июл-18 10:59 (спустя 8 дней)

"Не слушал, но одобряю" хотя бы за потрековые файлы. Забираю.
[Профиль]  [ЛС] 

evisa

Стаж: 10 лет 8 месяцев

Сообщений: 323

evisa · 26-Июл-18 02:01 (спустя 14 дней, ред. 26-Июл-18 02:01)

Лисной Йожыг
Спасибки от ученика ! Тоже временами по вашей методичке что-то выправляю, правда времени категорически не хватает. Морчибу конечно забираю.
[Профиль]  [ЛС] 

BEFFECT

Стаж: 11 лет 2 месяца

Сообщений: 39

BEFFECT · 23-Сен-18 16:23 (спустя 1 месяц 28 дней)

Йожиг добрый день вам.
С треккера исчез исходник “head up high”
Выложи если у тебя остался пожалуйста)
[Профиль]  [ЛС] 

Лисной Йожыг

Стаж: 10 лет 9 месяцев

Сообщений: 922

Лисной Йожыг · 23-Сен-18 17:36 (спустя 1 час 12 мин.)

BEFFECT, доброго дня. "Head Up High" на Рутрекере в lossless не появлялся, я его брал с другого - NNM Club. Он там до сих пор раздаётся.
[Профиль]  [ЛС] 

Sanchez II

Стаж: 12 лет

Сообщений: 90

Sanchez II · 03-Ноя-18 19:31 (спустя 1 месяц 10 дней)

А iTunes бонус-трек "Whirlwind" с альбома "Head Up High" откуда взялся в lossless?
[Профиль]  [ЛС] 

Лисной Йожыг

Стаж: 10 лет 9 месяцев

Сообщений: 922

Лисной Йожыг · 04-Ноя-18 10:02 (спустя 14 часов)

Sanchez II, AAC из iTunes обработан и сохранён в lossless. Об этом я написал под спойлером к альбому.
[Профиль]  [ЛС] 

lll222000

Стаж: 5 лет 5 месяцев

Сообщений: 7


lll222000 · 16-Фев-19 23:16 (спустя 3 месяца 12 дней)

Спасибо за отличную раздачу Творения Великих Музыкантов!
А так же, большое спасибо за предоставленную информацию, касающуюся качества цифровых записей!
Образцовая раздача!
Теперь, заценю звучание данных оцифровок))
[Профиль]  [ЛС] 
 
Ответить
Loading...
Error