[RM] [restored] [declipped] [16/44] (Heavy Metal) Judas Priest - 1986-2018, FLAC (tracks+.cue)

Страницы :  1, 2, 3  След.

Ответить
Автор
Сообщение

Лисной Йожыг

Стаж: 10 лет 9 месяцев

Сообщений: 922

Лисной Йожыг · 14-Мар-18 21:49 (1 год 4 месяца назад, ред. 15-Авг-18 11:14)


Жанр: Heavy Metal
Год выпуска: 1986-2018
Аудио кодек: FLAC
Тип рипа: tracks+.cue
Формат раздачи: 16/44
Продолжительность: 09:53:41
Наличие сканов в содержимом раздачи: нет
Исходник для обработки: Дискография; Firepower
Обработка: Устранение клиппинга, восстановление динамического диапазона, эквализация

Studio albums
1986 - Turbo
01. Turbo Lover (5:34)
02. Locked In (4:20)
03. Private Property (4:30)
04. Parental Guidance (3:27)
05. Rock You All Around the World (3:37)
06. Out in the Cold (6:28)
07. Wild Nights, Hot & Crazy Days (4:40)
08. Hot for Love (4:12)
09. Reckless (4:20)
10. All Fired Up [bonus track] (4:45)
11. Locked In [live] [bonus track] (4:25)
Исходное издание: Columbia ‎– CK 40158 + Columbia ‎– 502135 2 (бонус-треки)
Обработка: Проведена чистка инфразвука, коррекция азимута, коррекция DC, эквализация, выравнивание громкости треков в альбоме, коррекция громкости внутри треков, коррекция баланса.

Спектр, АЧХ, Уровень записи, Динамический диапазон
Код:
foobar2000 1.3.9 / Замер динамического диапазона (DR) 1.1.1
Дата отчёта: 2018-07-06 10:09:22
--------------------------------------------------------------------------------
Анализ:   Judas Priest / Turbo
--------------------------------------------------------------------------------
DR         Пики          RMS        Продолжительность трека
--------------------------------------------------------------------------------
DR12      -0.89 дБ   -15.64 дБ      5:34 1-Turbo Lover
DR12      -1.24 дБ   -15.47 дБ      4:20 2-Locked In
DR12      -1.06 дБ   -15.42 дБ      4:30 3-Private Property
DR12      -0.66 дБ   -14.61 дБ      3:27 4-Parental Guidance
DR13      -0.19 дБ   -15.04 дБ      3:37 5-Rock You All Around the World
DR12      -0.61 дБ   -15.35 дБ      6:28 6-Out in the Cold
DR12      -1.02 дБ   -15.29 дБ      4:40 7-Wild Nights, Hot & Crazy Days
DR12      -1.09 дБ   -14.95 дБ      4:12 8-Hot for Love
DR12      -1.43 дБ   -14.72 дБ      4:20 9-Reckless
DR10      -3.15 дБ   -14.72 дБ      4:45 10-All Fired Up [bonus track]
DR11      -2.70 дБ   -15.33 дБ      4:25 11-Locked In [live] [bonus track]
--------------------------------------------------------------------------------
Количество треков: 11
Реальные значения DR: DR12
Частота:  44100 Гц
Каналов:  2
Разрядность:   16
Битрейт:  995 кбит/с
Кодек:   FLAC
1988 - Ram It Down
01. Ram It Down (5:34)
02. Heavy Metal (5:13)
03. Love Zone (3:59)
04. Come and Get It (4:07)
05. Hard as Iron (5:53)
06. Blood Red Skies (6:07)
07. I'm a Rocker (3:59)
08. Johnny B. Goode [Chuck Berry cover] (4:39)
09. Love You to Death (4:37)
10. Monsters of Rock (5:31)
Исходное издание: CBS ‎– 461108 2
Обработка: Проведена чистка инфразвука, коррекция азимута, коррекция DC, эквализация, выравнивание громкости треков в альбоме, коррекция громкости внутри треков.

Спектр, АЧХ, Уровень записи, Динамический диапазон
Код:
foobar2000 1.3.9 / Замер динамического диапазона (DR) 1.1.1
Дата отчёта: 2018-07-06 10:09:22
--------------------------------------------------------------------------------
Анализ:   Judas Priest / Turbo
--------------------------------------------------------------------------------
DR         Пики          RMS        Продолжительность трека
--------------------------------------------------------------------------------
DR12      -0.89 дБ   -15.64 дБ      5:34 1-Turbo Lover
DR12      -1.24 дБ   -15.47 дБ      4:20 2-Locked In
DR12      -1.06 дБ   -15.42 дБ      4:30 3-Private Property
DR12      -0.66 дБ   -14.61 дБ      3:27 4-Parental Guidance
DR13      -0.19 дБ   -15.04 дБ      3:37 5-Rock You All Around the World
DR12      -0.61 дБ   -15.35 дБ      6:28 6-Out in the Cold
DR12      -1.02 дБ   -15.29 дБ      4:40 7-Wild Nights, Hot & Crazy Days
DR12      -1.09 дБ   -14.95 дБ      4:12 8-Hot for Love
DR12      -1.43 дБ   -14.72 дБ      4:20 9-Reckless
DR10      -3.15 дБ   -14.72 дБ      4:45 10-All Fired Up [bonus track]
DR11      -2.70 дБ   -15.33 дБ      4:25 11-Locked In [live] [bonus track]
--------------------------------------------------------------------------------
Количество треков: 11
Реальные значения DR: DR12
Частота:  44100 Гц
Каналов:  2
Разрядность:   16
Битрейт:  995 кбит/с
Кодек:   FLAC
1990 - Painkiller
01. Painkiller (6:07)
02. Hell Patrol (3:37)
03. All Guns Blazing (3:57)
04. Leather Rebel (3:35)
05. Metal Meltdown (4:49)
06. Night Crawler (5:45)
07. Between the Hammer & the Anvil (4:50)
08. A Touch of Evil (5:45)
09. Battle Hymn (0:57)
10. One Shot at Glory (6:49)
11. Living Bad Dreams [bonus track] (5:22)
12. Leather Rebel [live] [bonus track] (3:40)
Исходное издание: CBS ‎– 467290 2 + Columbia ‎– 502139 2 (бонус-треки)
Обработка: Проведена чистка инфразвука, коррекция азимута, коррекция DC, эквализация, выравнивание громкости треков в альбоме, коррекция громкости внутри треков.

Спектр, АЧХ, Уровень записи, Динамический диапазон
Код:
ffoobar2000 1.3.9 / Замер динамического диапазона (DR) 1.1.1
Дата отчёта: 2018-07-06 11:05:11
--------------------------------------------------------------------------------
Анализ:   Judas Priest / Painkiller
--------------------------------------------------------------------------------
DR         Пики          RMS        Продолжительность трека
--------------------------------------------------------------------------------
DR11      -1.23 дБ   -13.64 дБ      6:07 1-Painkiller
DR11      -1.18 дБ   -13.53 дБ      3:37 2-Hell Patrol
DR12      -0.73 дБ   -13.64 дБ      3:57 3-All Guns Blazing
DR12      -1.06 дБ   -13.75 дБ      3:35 4-Leather Rebel
DR11      -1.22 дБ   -14.35 дБ      4:49 5-Metal Meltdown
DR12      -0.57 дБ   -13.95 дБ      5:45 6-Night Crawler
DR11      -1.43 дБ   -13.72 дБ      4:50 7-Between the Hammer & the Anvil
DR11      -1.08 дБ   -13.63 дБ      5:45 8-A Touch of Evil
DR10      -8.46 дБ   -20.29 дБ      0:57 9-Battle Hymn
DR11      -1.39 дБ   -13.70 дБ      6:49 10-One Shot at Glory
DR11      -2.00 дБ   -14.59 дБ      5:22 11-Living Bad Dreams [bonus track]
DR10      -2.35 дБ   -13.37 дБ      3:40 12-Leather Rebel [live] [bonus track]
--------------------------------------------------------------------------------
Количество треков: 12
Реальные значения DR: DR11
Частота:  44100 Гц
Каналов:  2
Разрядность:   16
Битрейт:  939 кбит/с
Кодек:   FLAC
1997 - Jugulator
01. Jugulator (5:51)
02. Blood Stained (5:27)
03. Dead Meat (4:45)
04. Death Row (5:04)
05. Decapitate (4:40)
06. Burn in Hell (6:42)
07. Brain Dead (5:24)
08. Abductors (5:50)
09. Bullet Train (5:11)
10. Cathedral Spires (9:17)
Исходное издание: Steamhammer ‎– SPV 085-18782
Обработка: Проведены деклиппинг и эквализация.

Спектр, АЧХ, Уровень записи, Динамический диапазон
Код:
foobar2000 1.3.9 / Замер динамического диапазона (DR) 1.1.1
Дата отчёта: 2018-03-20 21:06:33
--------------------------------------------------------------------------------
Анализ:   Judas Priest / Jugulator
--------------------------------------------------------------------------------
DR         Пики          RMS        Продолжительность трека
--------------------------------------------------------------------------------
DR12      -1.84 дБ   -16.90 дБ      5:51 1-Jugulator
DR12      -1.02 дБ   -15.14 дБ      5:27 2-Blood Stained
DR12      -1.33 дБ   -15.59 дБ      4:45 3-Dead Meat
DR12      -1.01 дБ   -16.23 дБ      5:04 4-Death Row
DR13      -1.60 дБ   -18.09 дБ      4:40 5-Decapitate
DR12      -1.10 дБ   -17.01 дБ      6:42 6-Burn in Hell
DR12      -1.80 дБ   -16.31 дБ      5:24 7-Brain Dead
DR12      -1.15 дБ   -15.48 дБ      5:50 8-Abductors
DR12      -1.07 дБ   -14.96 дБ      5:11 9-Bullet Train
DR13      -1.02 дБ   -17.21 дБ      9:17 10-Cathedral Spires
--------------------------------------------------------------------------------
Количество треков: 10
Реальные значения DR: DR12
Частота:  44100 Гц
Каналов:  2
Разрядность:   16
Битрейт:  851 кбит/с
Кодек:   FLAC
2001 - Demolition
01. Machine Man (5:36)
02. One on One (6:44)
03. Hell Is Home (6:19)
04. Jekyll and Hyde (3:20)
05. Close to You (4:28)
06. Devil Digger (4:45)
07. Bloodsuckers (6:18)
08. In Between (5:41)
09. Feed on Me (5:29)
10. Subterfuge (5:13)
11. Lost and Found (4:58)
12. Cyberface (6:45)
13. Metal Messiah (5:14)
14. Rapid Fire [live] [bonus track] (3:54)
15. The Green Manalishi (With the Two Pronged Crown) [Fleetwood Mac cover] [live] [bonus track] (4:10)
16. What's My Name [bonus track] (3:46)
Исходное издание: Steamhammer ‎– SPV 088-72420 + Victor ‎– VICP-61349
Обработка: Проведены деклиппинг, декомпрессия и эквализация.

Примечание: Трек №16 взят из японского издания.
Спектр, АЧХ, Уровень записи, Динамический диапазон
Код:
foobar2000 1.3.9 / Замер динамического диапазона (DR) 1.1.1
Дата отчёта: 2018-03-20 21:46:03
--------------------------------------------------------------------------------
Анализ:   Judas Priest / Demolition
--------------------------------------------------------------------------------
DR         Пики          RMS        Продолжительность трека
--------------------------------------------------------------------------------
DR12      -1.41 дБ   -14.77 дБ      5:36 1-Machine Man
DR12      -1.24 дБ   -14.68 дБ      6:44 2-One on One
DR12      -1.17 дБ   -15.16 дБ      6:19 3-Hell Is Home
DR11      -1.43 дБ   -14.51 дБ      3:20 4-Jekyll and Hyde
DR12      -0.81 дБ   -16.56 дБ      4:28 5-Close to You
DR11      -1.01 дБ   -14.50 дБ      4:45 6-Devil Digger
DR13      -0.50 дБ   -15.19 дБ      6:18 7-Bloodsuckers
DR13      -1.06 дБ   -17.59 дБ      5:41 8-In Between
DR12      -0.99 дБ   -15.34 дБ      5:29 9-Feed on Me
DR11      -1.40 дБ   -14.09 дБ      5:13 10-Subterfuge
DR11      -1.02 дБ   -16.87 дБ      4:58 11-Lost and Found
DR11      -1.07 дБ   -14.39 дБ      6:45 12-Cyberface
DR12      -1.19 дБ   -15.63 дБ      5:14 13-Metal Messiah
DR12      -0.92 дБ   -15.07 дБ      3:54 14-Rapid Fire [live] [bonus track]
DR11      -0.82 дБ   -14.91 дБ      4:10 15-The Green Manalishi (With the Two Pronged Crown) [Fleetwood Mac cover] [live] [bonus track]
DR11      -0.74 дБ   -14.20 дБ      3:46 16-What's My Name [bonus track]
--------------------------------------------------------------------------------
Количество треков: 16
Реальные значения DR: DR12
Частота:  44100 Гц
Каналов:  2
Разрядность:   16
Битрейт:  913 кбит/с
Кодек:   FLAC
2005 - Angel of Retribution
01. Judas Rising (4:13)
02. Deal with the Devil (3:55)
03. Revolution (4:43)
04. Worth Fighting For (4:19)
05. Demonizer (4:38)
06. Wheels of Fire (3:47)
07. Angel (4:24)
08. Hellrider (6:24)
09. Eulogy (2:52)
10. Lochness (13:30)
Исходное издание: Epic ‎– EICP-469
Обработка: Проведены деклиппинг, декомпрессия и эквализация.

Спектр, АЧХ, Уровень записи, Динамический диапазон
Код:
foobar2000 1.3.9 / Замер динамического диапазона (DR) 1.1.1
Дата отчёта: 2018-03-20 21:48:47
--------------------------------------------------------------------------------
Анализ:   Judas Priest / Angel of Retribution
--------------------------------------------------------------------------------
DR         Пики          RMS        Продолжительность трека
--------------------------------------------------------------------------------
DR11      -2.11 дБ   -15.12 дБ      4:13 1-Judas Rising
DR11      -1.85 дБ   -14.19 дБ      3:55 2-Deal with the Devil
DR11      -1.83 дБ   -15.28 дБ      4:43 3-Revolution
DR13      -0.80 дБ   -15.42 дБ      4:19 4-Worth Fighting For
DR11      -1.77 дБ   -13.95 дБ      4:38 5-Demonizer
DR12      -1.19 дБ   -14.72 дБ      3:47 6-Wheels of Fire
DR12      -1.41 дБ   -19.15 дБ      4:24 7-Angel
DR11      -3.06 дБ   -15.58 дБ      6:24 8-Hellrider
DR13      -6.00 дБ   -20.94 дБ      2:52 9-Eulogy
DR11      -2.09 дБ   -16.80 дБ     13:30 10-Lochness
--------------------------------------------------------------------------------
Количество треков: 10
Реальные значения DR: DR12
Частота:  44100 Гц
Каналов:  2
Разрядность:   16
Битрейт:  834 кбит/с
Кодек:   FLAC
2008 - Nostradamus
01. Dawn of Creation (2:32)
02. Prophecy (5:26)
03. Awakening (0:53)
04. Revelations (7:05)
05. The Four Horsemen (1:35)
06. War (5:04)
07. Sands of Time (2:37)
08. Pestilence and Plague (5:09)
09. Death (7:34)
10. Peace (2:22)
11. Conquest (4:42)
12. Lost Love (4:28)
13. Persecution (6:34)
14. Solitude (1:23)
15. Exiled (6:33)
16. Alone (7:50)
17. Shadows in the Flame (1:10)
18. Visions (5:24)
19. Hope (2:09)
20. New Beginnings (4:57)
21. Calm Before the Storm (2:05)
22. Nostradamus (6:43)
23. Future of Mankind (8:30)
Исходное издание: Epic ‎– 88697315512-S2
Обработка: Проведены деклиппинг и декомпрессия.

Спектр, АЧХ, Уровень записи, Динамический диапазон
Код:
foobar2000 1.3.9 / Замер динамического диапазона (DR) 1.1.1
Дата отчёта: 2018-03-20 22:16:48
--------------------------------------------------------------------------------
Анализ:   Judas Priest / Nostradamus
--------------------------------------------------------------------------------
DR         Пики          RMS        Продолжительность трека
--------------------------------------------------------------------------------
DR12      -5.31 дБ   -21.65 дБ      2:32 1-Dawn of Creation
DR11      -0.77 дБ   -13.40 дБ      5:26 2-Prophecy
DR10      -4.80 дБ   -17.58 дБ      0:53 3-Awakening
DR10      -0.87 дБ   -12.60 дБ      7:05 4-Revelations
DR12      -8.95 дБ   -23.41 дБ      1:35 5-The Four Horsemen
DR10      -2.36 дБ   -14.71 дБ      5:04 6-War
DR13      -1.64 дБ   -18.86 дБ      2:37 7-Sands of Time
DR10      -1.38 дБ   -13.16 дБ      5:09 8-Pestilence and Plague
DR11      -0.76 дБ   -13.87 дБ      7:34 9-Death
DR11      -3.90 дБ   -19.32 дБ      2:22 10-Peace
DR10      -1.06 дБ   -12.57 дБ      4:42 11-Conquest
DR11      -3.61 дБ   -18.03 дБ      4:28 12-Lost Love
DR10      -0.70 дБ   -13.62 дБ      6:34 13-Persecution
DR13     -10.69 дБ   -27.90 дБ      1:23 14-Solitude
DR10      -2.43 дБ   -15.28 дБ      6:33 15-Exiled
DR11      -0.50 дБ   -14.95 дБ      7:50 16-Alone
DR11      -5.12 дБ   -19.12 дБ      1:10 17-Shadows in the Flame
DR11      -1.62 дБ   -14.00 дБ      5:24 18-Visions
DR12      -8.78 дБ   -23.53 дБ      2:09 19-Hope
DR11      -1.43 дБ   -14.60 дБ      4:57 20-New Beginnings
DR12      -7.44 дБ   -24.47 дБ      2:05 21-Calm Before the Storm
DR11      -0.57 дБ   -12.96 дБ      6:43 22-Nostradamus
DR11      -0.95 дБ   -13.92 дБ      8:30 23-Future of Mankind
--------------------------------------------------------------------------------
Количество треков: 23
Реальные значения DR: DR11
Частота:  44100 Гц
Каналов:  2
Разрядность:   16
Битрейт:  818 кбит/с
Кодек:   FLAC
2014 - Redeemer of Souls
01. Dragonaught (4:26)
02. Redeemer of Souls (3:59)
03. Halls of Valhalla (6:04)
04. Sword of Damocles (4:55)
05. March of the Damned (3:56)
06. Down in Flames (3:55)
07. Hell & Back (4:46)
08. Cold Blooded (5:25)
09. Metalizer (4:38)
10. Crossfire (3:51)
11. Secrets of the Dead (5:41)
12. Battle Cry (5:18)
13. Beginning of the End (5:08)
14. Snakebite [bonus track] (3:15)
15. Tears of Blood [bonus track] (4:19)
16. Creatures [bonus track] (4:26)
17. Bring It On [bonus track] (3:18)
18. Never Forget [bonus track] (6:26)
Исходное издание: Sony Records Int'l ‎– SICP 30616~7
Обработка: Проведены деклиппинг, декомпрессия и эквализация.

Спектр, АЧХ, Уровень записи, Динамический диапазон
Код:
foobar2000 1.3.9 / Замер динамического диапазона (DR) 1.1.1
Дата отчёта: 2018-03-21 20:15:19
--------------------------------------------------------------------------------
Анализ:   Judas Priest / Redeemer of Souls
--------------------------------------------------------------------------------
DR         Пики          RMS        Продолжительность трека
--------------------------------------------------------------------------------
DR10      -1.04 дБ   -12.30 дБ      4:26 1-Dragonaught
DR10      -0.83 дБ   -12.40 дБ      3:59 2-Redeemer of Souls
DR10      -0.54 дБ   -12.67 дБ      6:04 3-Halls of Valhalla
DR11      -0.62 дБ   -12.80 дБ      4:55 4-Sword of Damocles
DR10      -0.88 дБ   -12.03 дБ      3:56 5-March of the Damned
DR10      -0.65 дБ   -12.37 дБ      3:55 6-Down in Flames
DR11      -0.93 дБ   -13.56 дБ      4:46 7-Hell & Back
DR11      -0.66 дБ   -12.70 дБ      5:25 8-Cold Blooded
DR10      -1.29 дБ   -11.68 дБ      4:38 9-Metalizer
DR10      -1.03 дБ   -13.51 дБ      3:51 10-Crossfire
DR11      -1.01 дБ   -13.47 дБ      5:41 11-Secrets of the Dead
DR11      -0.80 дБ   -12.66 дБ      5:18 12-Battle Cry
DR11      -1.93 дБ   -16.48 дБ      5:08 13-Beginning of the End
DR11      -1.43 дБ   -13.14 дБ      3:15 14-Snakebite [bonus track]
DR11      -1.13 дБ   -13.59 дБ      4:19 15-Tears of Blood [bonus track]
DR10      -1.09 дБ   -13.28 дБ      4:26 16-Creatures [bonus track]
DR10      -1.35 дБ   -13.18 дБ      3:18 17-Bring It On [bonus track]
DR13      -0.50 дБ   -16.34 дБ      6:26 18-Never Forget [bonus track]
--------------------------------------------------------------------------------
Количество треков: 18
Реальные значения DR: DR11
Частота:  44100 Гц
Каналов:  2
Разрядность:   16
Битрейт:  859 кбит/с
Кодек:   FLAC
2018 - Firepower
01. Firepower (3:27)
02. Lightning Strike (3:29)
03. Evil Never Dies (4:23)
04. Never the Heroes (4:24)
05. Necromancer (3:33)
06. Children of the Sun (4:00)
07. Guardians (1:06)
08. Rising from Ruins (5:23)
09. Flame Thrower (4:34)
10. Spectre (4:26)
11. Traitors Gate (5:43)
12. No Surrender (2:54)
13. Lone Wolf (5:09)
14. Sea of Red (5:52)
Исходное издание: Columbia ‎– none
Обработка: Проведены деклиппинг и декомпрессия.

Спектр, АЧХ, Уровень записи, Динамический диапазон
Код:
foobar2000 1.3.9 / Замер динамического диапазона (DR) 1.1.1
Дата отчёта: 2018-03-14 20:28:07
--------------------------------------------------------------------------------
Анализ:   Judas Priest / Firepower
--------------------------------------------------------------------------------
DR         Пики          RMS        Продолжительность трека
--------------------------------------------------------------------------------
DR11      -1.27 дБ   -14.10 дБ      3:27 1-Firepower
DR12      -1.02 дБ   -13.76 дБ      3:29 2-Lightning Strike
DR12      -1.17 дБ   -15.06 дБ      4:23 3-Evil Never Dies
DR12      -1.13 дБ   -15.60 дБ      4:24 4-Never the Heroes
DR12      -0.86 дБ   -13.85 дБ      3:33 5-Necromancer
DR12      -1.38 дБ   -15.99 дБ      4:00 6-Children of the Sun
DR11      -1.55 дБ   -21.10 дБ      1:06 7-Guardians
DR12      -1.15 дБ   -14.92 дБ      5:23 8-Rising from Ruins
DR12      -1.20 дБ   -14.82 дБ      4:34 9-Flame Thrower
DR13      -0.95 дБ   -15.53 дБ      4:26 10-Spectre
DR12      -1.02 дБ   -14.44 дБ      5:43 11-Traitors Gate
DR13      -1.08 дБ   -15.64 дБ      2:54 12-No Surrender
DR12      -1.59 дБ   -15.74 дБ      5:09 13-Lone Wolf
DR13      -1.41 дБ   -17.57 дБ      5:52 14-Sea of Red
--------------------------------------------------------------------------------
Количество треков: 14
Реальные значения DR: DR12
Частота:  44100 Гц
Каналов:  2
Разрядность:   16
Битрейт:  913 кбит/с
Кодек:   FLAC
Дополнительная информация
Обработка: Adobe Audition с плагинами Stereo Tool, TDR Limiter 6 GE, Fabfilter Pro-L 2, Fabfilter-Q 2, Fabfilter-DS, Sonible ProximityEQ+, BBE Mach 3 Bass, Flux StereoTool v3.
Мониторинг результата:
Стационарная аппаратура: NAD D 1050 + Beyerdynamic DT 990 Pro и Rotel RA-10 + Jamo C603
Мобильная аппаратура: Meizu MX2 + Sennheiser CX 980
Примечание: Деклиппинг и восстановление динамического диапазона - не панацея от некачественной записи. Целью реставрации является меньшая усталость при прослушивании, и звучание, приближенное к тому, которое задумывалось звукорежиссером, до вмешательства маркетологов.
Материалы по теме "Война громкости": 1, 2, 3, 4

Другие раздачи в рамках проекта можно найти здесь
21.03.2018: Раздача расширена. Добавлены студийные альбомы 1997-2014 годов.
06.07.2018: Раздача расширена. Добавлены студийные альбомы 1986-1990 годов.
Download
Для скачивания .torrent файлов необходима регистрация
Сайт не распространяет и не хранит электронные версии произведений, а лишь предоставляет доступ к создаваемому пользователями каталогу ссылок на торрент-файлы, которые содержат только списки хеш-сумм
[Профиль]  [ЛС] 

SlayeR1980

Стаж: 11 лет 8 месяцев

Сообщений: 17

SlayeR1980 · 14-Мар-18 23:53 (спустя 2 часа 3 мин.)

Ух ты, супер! Огромное спасибо за реставрацию данного материала. Классный альбом в классном качестве! Хочется верить, что это только начало, и данная раздача когда-нибудь разрастется до дискографии
[Профиль]  [ЛС] 

scotthenderson

Стаж: 10 лет 7 месяцев

Сообщений: 12

scotthenderson · 15-Мар-18 10:28 (спустя 10 часов, ред. 15-Мар-18 10:28)

Спасибо, Ваши релизы слушать одно удовольствие! Так хотелось бы услышать в вашей обработке Sons Of Apollo 2017 года и сольный альбом John Petrucci - Suspended Animation 2005 года.
[Профиль]  [ЛС] 

Сокол_04

Top Seed 07* 2560r

Стаж: 9 лет 5 месяцев

Сообщений: 3595

Сокол_04 · 15-Мар-18 11:43 (спустя 1 час 15 мин., ред. 15-Мар-18 16:51)

SlayeR1980 писал(а):
Хочется верить, что это только начало, и данная раздача когда-нибудь разрастется до дискографии
Особенно касается предыдущего альбома Redeemer of Souls, который по причине отвратного звука просто слушать не хочется.
Спасибо огромное за работу.
PS
Сделал аналогичную оцифровку с винила. При беглом сравнении в уши бросилось следующее: здесь отчетливее выделяется вокал, но несколько суше басы; на виниловом рипе в паузах присутствует какой-то гул, вполне различимый на высокой громкости. Поэтому в коллекцию забираю это
[Профиль]  [ЛС] 

nikita66666

Стаж: 7 лет 5 месяцев

Сообщений: 504

nikita66666 · 15-Мар-18 16:48 (спустя 5 часов)

Шикарно, спасибо Вам, Лисной Йожыг )))
[Профиль]  [ЛС] 

dddfcoold

Стаж: 12 лет 3 месяца

Сообщений: 42

dddfcoold · 15-Мар-18 17:37 (спустя 49 мин.)

А вы не планируете Iron Maiden отреставрировать с Brave New World по Final Frontier? Там такая же беда с компрессией как ершиком по ушам ))))
[Профиль]  [ЛС] 

SlayeR1980

Стаж: 11 лет 8 месяцев

Сообщений: 17

SlayeR1980 · 15-Мар-18 21:02 (спустя 3 часа)

Почему по Final Frontier? The Book Of Souls тоже закомпрессован.
[Профиль]  [ЛС] 

dddfcoold

Стаж: 12 лет 3 месяца

Сообщений: 42

dddfcoold · 15-Мар-18 21:34 (спустя 31 мин., ред. 15-Мар-18 21:34)

Да, я всё мечтаю starblind отрыть в отличном мягком звучании, вот и написал "по Фрейду" : )
Так-то и Kreator и Exodus и много чего ещё режет...
[Профиль]  [ЛС] 

SlayeR1980

Стаж: 11 лет 8 месяцев

Сообщений: 17

SlayeR1980 · 15-Мар-18 22:01 (спустя 26 мин., ред. 15-Мар-18 22:01)

Это да. Блин, с удовольствием заменил бы дискографии всех моих любимых групп, начиная с 90-х годов, на работы Лисного Йожыга
Да, после нескольких прослушиваний данного релиза винил-рип можно смело удалять, здесь звук больше нравится, да и шума между песнями нет. Автору еще раз большущее спасибо!
[Профиль]  [ЛС] 

dddfcoold

Стаж: 12 лет 3 месяца

Сообщений: 42

dddfcoold · 15-Мар-18 22:26 (спустя 25 мин.)

Полностью согласен, я когда магнетик и слэйер от Йожыга послушал (новые естественно альбомы, старые то люди с руками из плечевого пояса делали)) вообще в какую-то эйфорию впал, ибо это постоянный волосатый шелест очень напрягает и слушать неприятно, постоянно возвращаешься к старому материалу просто потому что его можно слушать пока не надоест, а не пока можешь терпеть) и новые вещи сразу раскрываются. Короче я выкачал почти все что нашёл от Йожыга и просто тащусь неадекватно от того, что получается.
[Профиль]  [ЛС] 

SlayeR1980

Стаж: 11 лет 8 месяцев

Сообщений: 17

SlayeR1980 · 15-Мар-18 22:42 (спустя 16 мин., ред. 15-Мар-18 22:42)

Ну да. Метла, Megadeth, Slayer, Accept, Annihilator, Rammstein от Йожыга уже есть. Теперь бы еще Judas Priest, Iron Maiden, Helloween, U.D.O., Amon Amarth, Arch Enemy, Blind Guardian, Gamma Ray, Grave Digger, HammerFall, Helloween, Kreator, Manowar, Primal Fear, Rage, Running Wild, Scorpions, Sodom... Эх, мечты...
[Профиль]  [ЛС] 

dddfcoold

Стаж: 12 лет 3 месяца

Сообщений: 42

dddfcoold · 15-Мар-18 23:28 (спустя 46 мин., ред. 15-Мар-18 23:28)

+Motorhead частично и некоторые команды, которые прекрасны, но малоизвестны, типа Wolf, Enforcer, Plainride и Woslom...) Мечтать не вредно, вредно не мечтать )
У Stormwitch вон вообще нет оформленной дискографии, позор нам всем )))
P.S. Testament ещё!
[Профиль]  [ЛС] 

-Mike-

Стаж: 11 лет 11 месяцев

Сообщений: 230

-Mike- · 17-Мар-18 06:33 (спустя 1 день 7 часов, ред. 17-Мар-18 06:33)

Лисной Йожыг
Ты молодец! Сам будучи в теме LW и борясь с этим уродством по мере сил, хочу сказать, что ты здорово сделал RM. Хороший саунд. даже можно сказать - шикарный. Был приятно удивлен что тут есть люди, которые не только понимают проблему но и предлагают на практике качественные RM. В общем благодарность и риспект! Не бросай благое дело.
Мне интересно как ты динамику растягивал? Если не секрет. Если ты уже где-то уже рассказывал про это в других темах, тогда можно ссылки.
[Профиль]  [ЛС] 

Лисной Йожыг

Стаж: 10 лет 9 месяцев

Сообщений: 922

Лисной Йожыг · 17-Мар-18 13:16 (спустя 6 часов)

Всем выше отписавшимся пожалуйста, и приятного прослушивания
SlayeR1980 писал(а):
74985913Хочется верить, что это только начало, и данная раздача когда-нибудь разрастется до дискографии
Всей дискографии не будет (какой смысл крутить звук в альбомах до 90-го года?), но, альбомы 97-14 годов в работе.
scotthenderson писал(а):
74987481Так хотелось бы услышать в вашей обработке Sons Of Apollo 2017 года и сольный альбом John Petrucci - Suspended Animation 2005 года.
К сожалению, я не имею возможности заниматься обработками в режиме 24/7, поэтому, даже свои хотелки приходится корректировать физически невозможно объять необъятное...
Сокол_04 писал(а):
74987859Особенно касается предыдущего альбома Redeemer of Souls, который по причине отвратного звука просто слушать не хочется.
Он так сведён. На CD/Web-релизах звучит поглуше, и поэтому "подвальность звучания" сильно выражена, на виниле чуть другой мастеринг, с упором на выделение верхней середины, и поэтому, "подвальность" не так выражена. Но, везде был сделан сильный упор на применение реверберации, которую без внесения артефактов вычистить из микса не представляется возможным. Я уже обработал альбом, и результат меня не устроил С другой стороны, насколько я понял, виниловые релизы сильно песочат, поэтому, придётся из двух зол выбирать менее злое
dddfcoold писал(а):
74989623А вы не планируете Iron Maiden отреставрировать с Brave New World по Final Frontier? Там такая же беда с компрессией как ершиком по ушам ))))
С IM я экспериментировал, и мне понравились первые два альбома (видать, их перемикшировали), но, посмотрев на объемы предстоящей работы, у меня как-то подубавилось энтузиазма. Поэтому, я не знаю, когда займусь данной командой.
SlayeR1980 писал(а):
74991869Ну да. Метла, Megadeth, Slayer, Accept, Annihilator, Rammstein от Йожыга уже есть. Теперь бы еще Judas Priest, Iron Maiden, Helloween, U.D.O., Amon Amarth, Arch Enemy, Blind Guardian, Gamma Ray, Grave Digger, HammerFall, Helloween, Kreator, Manowar, Primal Fear, Rage, Running Wild, Scorpions, Sodom... Эх, мечты...
Эх, помечтаю и я...
-Mike- писал(а):
74998653ты здорово сделал RM. Хороший саунд. даже можно сказать - шикарный.
Это скорее, не моя заслуга, а звукачей, которые не стали жестить и экспериментировать. Я только восстановил то, что "по идее, должно было быть".
Цитата:
Был приятно удивлен что тут есть люди, которые не только понимают проблему но и предлагают на практике качественные RM. В общем благодарность и риспект! Не бросай благое дело.
Вечно я этим заниматься не буду, но, пока что, боремся
Цитата:
Мне интересно как ты динамику растягивал? Если не секрет. Если ты уже где-то уже рассказывал про это в других темах, тогда можно ссылки.
Никаких секретов у меня нету, просто, как люди узнают, что надо больше одной кнопки жать, так растворяются на горизонте
Где-то я примеры приводил, но, уже не помню, поэтому, коротко опишу, что я делал с данным альбомом:
1. Perfect Declipper, восстановил порядка 3-3,5 дБ пиков, как клиппированных, так и частично лимитированных.
2. Лимитировал с помощью Fabfilter L излишне восстановленные пики.
3. С помощью ProximityEQ+ в линейном режиме немного поправил динамику (добавилось около 0,5+1 дБ)
4. Применил Natural Dynamics, и немного добавил динамики в материал.
5. Повторно лимитировал некоторые пики с помощью FabFilter L.
6. Нормализовал альбом и выгрузил.
Пункт №3 не всегда нужен, поэтому, применяю его поскольку-постольку. Если материал сведён хорошо, и при мастеринге не очень издевались над результатом, то за глаза хватает деклиппера и "натуральной динамики".
[Профиль]  [ЛС] 

SlayeR1980

Стаж: 11 лет 8 месяцев

Сообщений: 17

SlayeR1980 · 17-Мар-18 21:33 (спустя 8 часов, ред. 17-Мар-18 21:33)

Лисной Йожыг писал(а):
75002146Всей дискографии не будет (какой смысл крутить звук в альбомах до 90-го года?), но, альбомы 97-14 годов в работе.
Ну, собственно говоря, я и имел в виду дискографию, составленную из альбомов 90-х годов и позже, по аналогии с тем, как вы сделали Металлику, Слэйер и Акцепт. То, что альбомы в работе, безумно радует! Ждем с нетерпением, и еще раз спасибо!
[Профиль]  [ЛС] 

ironmine

Стаж: 10 лет 4 месяца

Сообщений: 378

ironmine · 20-Мар-18 08:47 (спустя 2 дня 11 часов)

Лисной Йожыг
Привет,
Можно ли у тебя поинтересоваться, почему ты предпочитаешь Perfect Declipper, а не Izotope RX Declip?
[Профиль]  [ЛС] 

Лисной Йожыг

Стаж: 10 лет 9 месяцев

Сообщений: 922

Лисной Йожыг · 20-Мар-18 09:50 (спустя 1 час 2 мин.)

ironmine, приветствую.
Потому что он гораздо гибче в настройках, и "умнее" в работе. Да и привык я к нему.
[Профиль]  [ЛС] 

ironmine

Стаж: 10 лет 4 месяца

Сообщений: 378

ironmine · 20-Мар-18 10:11 (спустя 20 мин.)

Лисной Йожыг писал(а):
75020402ironmine, приветствую.
Потому что он гораздо гибче в настройках, и "умнее" в работе. Да и привык я к нему.
А Вы его покупали или где-то можно найти пиратскую версию этого плагина (Perfect Declipper)?
Izotope RX De-Clip, которым я изредка пользуюсь, честно говоря, улучшает динамику, но почему-то только в отчётах Dynamic Range Meter, а на слух разницы нет. Я делал слепой тест в фубаре оригинального файла и "деклиппированного" и не смог отличить один от другого.
[Профиль]  [ЛС] 

Лисной Йожыг

Стаж: 10 лет 9 месяцев

Сообщений: 922

Лисной Йожыг · 20-Мар-18 11:51 (спустя 1 час 40 мин.)

Цитата:
где-то можно найти пиратскую версию этого плагина
https://rutracker.org/forum/viewtopic.php?p=74244701#74244701
Цитата:
Izotope RX De-Clip, которым я изредка пользуюсь, честно говоря, улучшает динамику, но почему-то только в отчётах Dynamic Range Meter
Не только в DR-метре, но и в другом инструментарии.
Цитата:
Я делал слепой тест в фубаре оригинального файла и "деклиппированного" и не смог отличить один от другого
Зависит от материала, изгаженности клиппингом и кучи других факторов. 1-2 дБ разницы в динамике, думаю, вы не услышите, а, к примеру, 5-6 дБ вполне реально услышать как в ABX-тесте, так и без него.
[Профиль]  [ЛС] 

To4kaZ

Стаж: 7 лет 11 месяцев

Сообщений: 1372

To4kaZ · 20-Мар-18 14:41 (спустя 2 часа 49 мин.)

Лисной Йожыг
Приветствую! Тоже подтянул сей альбомчик! Благодарю и за ваш релиз!
Офф:
скрытый текст
На днях просматривал раздачи группы Моральный кодекс. Единственный первопресс 1991 года с DR 10-13 нашёл. Остальные альбомы под declipped ушли, ибо что выложено, то переиздания с DR 5-7, слушать тяжко.
[Профиль]  [ЛС] 

Лисной Йожыг

Стаж: 10 лет 9 месяцев

Сообщений: 922

Лисной Йожыг · 21-Мар-18 07:51 (спустя 17 часов, ред. 21-Мар-18 07:51)

To4kaZ, пожалуйста
скрытый текст
Цитата:
На днях просматривал раздачи группы Моральный кодекс.
Надеюсь, результатом остались более-менее довольны. И не факт, что переиздания ремастировались, вполне вероятно, что альбомы такими выходили уже из студии.



Обновление
Раздача расширена. Добавлены студийные альбомы 1997-2014 годов.
[Профиль]  [ЛС] 

To4kaZ

Стаж: 7 лет 11 месяцев

Сообщений: 1372

To4kaZ · 21-Мар-18 09:09 (спустя 1 час 18 мин.)

Лисной Йожыг
Благодарю за работу! Раз такая пьянка надо и Halford-а подтягивать.
скрытый текст
Ушел с Asio на OpenAL - звук на 10-ке стал как в ХР. У меня Креатив: Элит Про.
[Профиль]  [ЛС] 

SlayeR1980

Стаж: 11 лет 8 месяцев

Сообщений: 17

SlayeR1980 · 21-Мар-18 09:47 (спустя 38 мин.)

Уф, ну вот и дождались! Это шикарный подарок всем любителям качественной музыки, спасибо!
[Профиль]  [ЛС] 

qwerty_az

Стаж: 9 лет 6 месяцев

Сообщений: 13


qwerty_az · 21-Мар-18 11:49 (спустя 2 часа 1 мин.)

Thank you, waited for it for a long time. Kipelov and Aria restored please
[Профиль]  [ЛС] 

Сокол_04

Top Seed 07* 2560r

Стаж: 9 лет 5 месяцев

Сообщений: 3595

Сокол_04 · 21-Мар-18 13:32 (спустя 1 час 43 мин.)

Ахренеть!
Вот так праздник!
В Firepower'e ничего с прошлого раза не изменилось?
[Профиль]  [ЛС] 

Лисной Йожыг

Стаж: 10 лет 9 месяцев

Сообщений: 922

Лисной Йожыг · 21-Мар-18 13:52 (спустя 19 мин., ред. 21-Мар-18 13:52)

Всем пожалуйста!
Сокол_04
Firepower не трогал, после работы перезалью 2014-й, там пара косяков.
qwerty_az
Арию и Кипелова делать смысла мало - на виниле они выходили с другим сведением, на CD - убиты.
[Профиль]  [ЛС] 

Сокол_04

Top Seed 07* 2560r

Стаж: 9 лет 5 месяцев

Сообщений: 3595

Сокол_04 · 21-Мар-18 14:03 (спустя 11 мин.)

Лисной Йожыг писал(а):
75027565Firepower не трогал,
После многократного послушивания могу одно сказать - лично для меня - именно так в идеале должен звучать металлический альбом. В смысле аудио, конечно.
Единственное - показалось, что начало Evil never dies (секунд 5) несколько громче, чем весь остальной трек. Напомнило ремастеры Sad Wings of Destiny Но, в общем, совсем не критично.
[Профиль]  [ЛС] 

Лисной Йожыг

Стаж: 10 лет 9 месяцев

Сообщений: 922

Лисной Йожыг · 21-Мар-18 14:30 (спустя 26 мин.)

Цитата:
показалось, что начало Evil never dies (секунд 5) несколько громче, чем весь остальной трек
Посмотрю вечером, мог накосячить.
[Профиль]  [ЛС] 

ironmine

Стаж: 10 лет 4 месяца

Сообщений: 378

ironmine · 21-Мар-18 16:42 (спустя 2 часа 11 мин., ред. 01-Апр-18 10:59)

Лисной Йожыг
Спасибо, мне удалось найти Stereo Tool версию 8.34. Похоже, она работает.
Я так понял, что сначала нужно снизить уровень трека, а потом применять Declipper, так? Или это можно одновременно делать, в самом Stereo Tool?
PS: Нет, я поспешил с заявлением насчёт 8.34. Глючная версия. Спустя неделю использования почему-то теперь из-за неё не запускается Foobar, и в Adobe Audtion не хочет работать тоже. Заменил на версию 8.12. Она вроде работает - пока полёт нормальный.
[Профиль]  [ЛС] 

Лисной Йожыг

Стаж: 10 лет 9 месяцев

Сообщений: 922

Лисной Йожыг · 21-Мар-18 16:56 (спустя 14 мин.)

Цитата:
Я так понял, что сначала нужно снизить уровень трека, а потом применять Declipper, так?
Я не трогаю уровень при обработке трека. Нормализую его уже при сохранении файла. А если сигнал при обработке "уходит в +", то это не страшно, современное ПО позволяет редактировать такой звук (тот же Adobe Audition поддерживает до +45 дБ).
[Профиль]  [ЛС] 
 
Ответить
Loading...
Error