(Metal) Dream Theater - Black Clouds & Silver Linings (remixed) - 2009/2018, FLAC (tracks), lossless

Страницы:  1

Ответить
Автор
Сообщение

StallmanWasRight

Стаж: 5 лет 2 месяца

Сообщений: 1719

StallmanWasRight · 15-Май-18 11:10 (1 год 2 месяца назад, ред. 16-Май-18 09:31)

Dream Theater / Black Clouds & Silver Linings (remixed)
Жанр: Metal
Год издания: 2009/2018
Аудиокодек: FLAC (*.flac) (44100 Hz, 16 bit, stereo)
Тип рипа: tracks
Битрейт аудио: lossless
Продолжительность: 2:29:34
Источник: https://rutracker.org/forum/viewtopic.php?t=1958271 by DarkenRAL
Наличие сканов в содержимом раздачи: нет
Треклист:
Black Clouds & Silver Linings:
01 — A Nightmare to Remember (15:45)
02 — A Rite of Passage (8:35)
03 — Wither (5:31)
04 — The Shattered Fortress (12:48)
05 — The Best of Times (13:22)
06 — The Count of Tuscany (18:46)
Black Clouds & Silver Linings (instrumental):
01 — A Nightmare to Remember (15:45)
02 — A Rite of Passage (8:35)
03 — Wither (5:31)
04 — The Shattered Fortress (12:48)
05 — The Best of Times (13:21)
06 — The Count of Tuscany (18:46)
Dynamic Range
Код:
generated by https://github.com/magicgoose/simple_dr_meter
log date: 2018-05-16 09:01:08
--------------------------------------------------------------------------------
Analyzed: Dream Theater — Black Clouds & Silver Linings
--------------------------------------------------------------------------------
DR         Peak         RMS     Duration Track
--------------------------------------------------------------------------------
DR14      -0.01 dB   -16.67 dB     15:45 01-A Nightmare to Remember
DR14      -0.69 dB   -16.79 dB      8:35 02-A Rite of Passage
DR12      -2.65 dB   -17.51 dB      5:31 03-Wither
DR14      -1.37 dB   -16.24 dB     12:48 04-The Shattered Fortress
DR13      -1.56 dB   -17.89 dB     13:22 05-The Best of Times
DR13      -0.76 dB   -17.11 dB     18:46 06-The Count of Tuscany
--------------------------------------------------------------------------------
Number of tracks:  6
Official DR value: DR13
Samplerate:        44100 Hz
Channels:          2
================================================================================

Код:
generated by https://github.com/magicgoose/simple_dr_meter
log date: 2018-05-16 09:01:17
--------------------------------------------------------------------------------
Analyzed: Dream Theater — Black Clouds & Silver Linings (instrumental)
--------------------------------------------------------------------------------
DR         Peak         RMS     Duration Track
--------------------------------------------------------------------------------
DR14      -0.01 dB   -16.95 dB     15:45 01-A Nightmare to Remember
DR14      -0.69 dB   -17.05 dB      8:35 02-A Rite of Passage
DR12      -3.08 dB   -18.04 dB      5:31 03-Wither
DR14      -1.37 dB   -16.51 dB     12:48 04-The Shattered Fortress
DR13      -1.56 dB   -18.12 dB     13:21 05-The Best of Times
DR14      -0.76 dB   -17.34 dB     18:46 06-The Count of Tuscany
--------------------------------------------------------------------------------
Number of tracks:  6
Official DR value: DR14
Samplerate:        44100 Hz
Channels:          2
================================================================================
Спектры
Уровень записи
АЧХ
Доп. информация: Сведение сделано из https://rutracker.org/forum/viewtopic.php?t=1958271.
Также добавлен вариант с отключённым вокалом (ничем не отличается от основного варианта, присутствующего здесь, кроме выключенного вокала).
Download
Для скачивания .torrent файлов необходима регистрация
Сайт не распространяет и не хранит электронные версии произведений, а лишь предоставляет доступ к создаваемому пользователями каталогу ссылок на торрент-файлы, которые содержат только списки хеш-сумм
[Профиль]  [ЛС] 

kasatkal

Moderator

Стаж: 11 лет

Сообщений: 14167

kasatkal · 16-Май-18 08:58 (спустя 21 час)

StallmanWasRight
В оформлении добавьте, пожалуйста: Спектр, АЧХ, Уровень записи, Динамический диапазон.
Исправьте и отпишитесь, пожалуйста.
[Профиль]  [ЛС] 

WWIII_08

Стаж: 10 лет 11 месяцев

Сообщений: 1893

WWIII_08 · 11-Июн-18 21:43 (спустя 26 дней)

Скачал, оценил. Жирно выведен бас и соляки петрухи, это отлично.
[Профиль]  [ЛС] 

StallmanWasRight

Стаж: 5 лет 2 месяца

Сообщений: 1719

StallmanWasRight · 11-Июн-18 22:09 (спустя 26 мин.)

WWIII_08 писал(а):
75493982и соляки петрухи
кстати, взаимоотношение ("соляков"/основной дорожки с гитарами/клавиш) не трогал — они оставлены в исходном соотношении практически везде, кроме интро к первому треку.
основная работа над тем, чтобы накрутить бас, ударные и вокал относительно этой тройки везде так, чтобы всё субъективно "чётко" звучало.
бас был также слегка накручен параметрическим эквалайзером.
[Профиль]  [ЛС] 
 
Ответить
Loading...
Error