(Rock, Folk Rock, Soft Rock) [CD] Rod Stewart - Another Country (KSL Edition) - 2015 (rem 2018), FLAC (tracks+.cue), lossless

Страницы:  1

Ответить
Автор
Сообщение

komory333

Стаж: 11 лет 8 месяцев

Сообщений: 113


komory333 · 07-Июн-18 18:02 (1 год 1 месяц назад, ред. 07-Июн-18 18:07)

Rod Stewart / Another Country (KSL Edition)
Жанр: Rock, Folk Rock, Soft Rock
Носитель: CD
Страна-производитель диска (релиза): Germany
Год издания: 2015 (rem 2018)
Издатель (лейбл): KronStudioLab
Номер по каталогу: 48018 DM
Страна исполнителя (группы): England
Аудиокодек: FLAC (*.flac)
Тип рипа: tracks+.cue
Битрейт аудио: lossless
Продолжительность: 60:38
Источник (релизер): demonoid
Наличие сканов в содержимом раздачи: нет
Треклист:
01 - Love Is (3:56)
02 - Please (4:24)
03 - Walking In The Sunshine (4:32)
04 - Love And Be Loved (2:56)
05 - We Can Win (5:01)
06 - Another Country (3:30)
07 - Way Back Home (4:37)
08 - Can We Stay Home Tonight (4:05)
09 - Batman Superman Spiderman (3:35)
10 - The Drinking Song (3:39)
11 - Hold The Line (4:07)
12 - A Friend For Life (4:44)
13 - Every Rock'N'Roll Song To Me (3:21)
14 - One Night With You (3:34)
15 - Last Train Home (4:37)
Лог создания рипа
Exact Audio Copy V0.99 prebeta 5 from 4. May 2009
EAC extraction logfile from 5. June 2018, 20:22
Rod Stewart / Another Country (KSL Edition)
Used drive : ASUS DRW-24B5ST Adapter: 1 ID: 0
Read mode : Secure
Utilize accurate stream : Yes
Defeat audio cache : Yes
Make use of C2 pointers : No
Read offset correction : 6
Overread into Lead-In and Lead-Out : No
Fill up missing offset samples with silence : Yes
Delete leading and trailing silent blocks : No
Null samples used in CRC calculations : Yes
Used interface : Native Win32 interface for Win NT & 2000
Gap handling : Appended to previous track
Used output format : Internal WAV Routines
Sample format : 44.100 Hz; 16 Bit; Stereo
TOC of the extracted CD
Track | Start | Length | Start sector | End sector
---------------------------------------------------------
1 | 0:00.00 | 3:56.00 | 0 | 17699
2 | 3:56.00 | 4:24.00 | 17700 | 37499
3 | 8:20.00 | 4:32.00 | 37500 | 57899
4 | 12:52.00 | 2:56.37 | 57900 | 71136
5 | 15:48.37 | 5:01.00 | 71137 | 93711
6 | 20:49.37 | 3:30.37 | 93712 | 109498
7 | 24:19.74 | 4:36.72 | 109499 | 130270
8 | 28:56.71 | 4:05.00 | 130271 | 148645
9 | 33:01.71 | 3:35.00 | 148646 | 164770
10 | 36:36.71 | 3:39.00 | 164771 | 181195
11 | 40:15.71 | 4:07.00 | 181196 | 199720
12 | 44:22.71 | 4:44.00 | 199721 | 221020
13 | 49:06.71 | 3:21.00 | 221021 | 236095
14 | 52:27.71 | 3:34.00 | 236096 | 252145
15 | 56:01.71 | 4:36.38 | 252146 | 272883
Track 1
Filename E:\EAC-CD-NEW\01 - Love Is.wav
Pre-gap length 0:00:02.00
Peak level 96.5 %
Track quality 100.0 %
Test CRC A06E2D66
Copy CRC A06E2D66
Copy OK
Track 2
Filename E:\EAC-CD-NEW\02 - Please.wav
Peak level 96.5 %
Track quality 100.0 %
Test CRC 4C2A15A1
Copy CRC 4C2A15A1
Copy OK
Track 3
Filename E:\EAC-CD-NEW\03 - Walking In The Sunshine.wav
Peak level 96.1 %
Track quality 100.0 %
Test CRC 3E4F483D
Copy CRC 3E4F483D
Copy OK
Track 4
Filename E:\EAC-CD-NEW\04 - Love And Be Loved.wav
Peak level 88.2 %
Track quality 100.0 %
Test CRC 2807012C
Copy CRC 2807012C
Copy OK
Track 5
Filename E:\EAC-CD-NEW\05 - We Can Win.wav
Peak level 95.7 %
Track quality 100.0 %
Test CRC 588E9550
Copy CRC 588E9550
Copy OK
Track 6
Filename E:\EAC-CD-NEW\06 - Another Country.wav
Peak level 93.8 %
Track quality 100.0 %
Test CRC CD8DB084
Copy CRC CD8DB084
Copy OK
Track 7
Filename E:\EAC-CD-NEW\07 - Way Back Home.wav
Peak level 89.2 %
Track quality 100.0 %
Test CRC F4C89021
Copy CRC F4C89021
Copy OK
Track 8
Filename E:\EAC-CD-NEW\08 - Can We Stay Home Tonight.wav
Peak level 96.5 %
Track quality 100.0 %
Test CRC 8582C18E
Copy CRC 8582C18E
Copy OK
Track 9
Filename E:\EAC-CD-NEW\09 - Batman Superman Spiderman.wav
Peak level 96.3 %
Track quality 100.0 %
Test CRC 1051028C
Copy CRC 1051028C
Copy OK
Track 10
Filename E:\EAC-CD-NEW\10 - The Drinking Song.wav
Peak level 96.4 %
Track quality 100.0 %
Test CRC CF6666E9
Copy CRC CF6666E9
Copy OK
Track 11
Filename E:\EAC-CD-NEW\11 - Hold The Line.wav
Peak level 96.5 %
Track quality 100.0 %
Test CRC D1E4C0C5
Copy CRC D1E4C0C5
Copy OK
Track 12
Filename E:\EAC-CD-NEW\12 - A Friend For Life.wav
Peak level 85.1 %
Track quality 100.0 %
Test CRC 28B54F6A
Copy CRC 28B54F6A
Copy OK
Track 13
Filename E:\EAC-CD-NEW\13 - Every Rock'N'Roll Song To Me.wav
Peak level 95.5 %
Track quality 100.0 %
Test CRC F0EABD14
Copy CRC F0EABD14
Copy OK
Track 14
Filename E:\EAC-CD-NEW\14 - One Night With You.wav
Peak level 95.0 %
Track quality 100.0 %
Test CRC 9A8164AF
Copy CRC 9A8164AF
Copy OK
Track 15
Filename E:\EAC-CD-NEW\15 - Last Train Home.wav
Peak level 96.5 %
Track quality 100.0 %
Test CRC E0E0A39E
Copy CRC E0E0A39E
Copy OK
No errors occurred
End of status report
Содержание индексной карты (.CUE)
REM GENRE Rock
REM DATE 2015
REM DISCID DE0E360F
REM COMMENT "ExactAudioCopy v0.99pb5"
PERFORMER "Rod Stewart"
TITLE "Another Country (KSL Edition)"
FILE "01 - Love Is.wav" WAVE
TRACK 01 AUDIO
TITLE "Love Is"
PERFORMER "Rod Stewart"
INDEX 01 00:00:00
FILE "02 - Please.wav" WAVE
TRACK 02 AUDIO
TITLE "Please"
PERFORMER "Rod Stewart"
INDEX 01 00:00:00
FILE "03 - Walking In The Sunshine.wav" WAVE
TRACK 03 AUDIO
TITLE "Walking In The Sunshine"
PERFORMER "Rod Stewart"
INDEX 01 00:00:00
FILE "04 - Love And Be Loved.wav" WAVE
TRACK 04 AUDIO
TITLE "Love And Be Loved"
PERFORMER "Rod Stewart"
INDEX 01 00:00:00
FILE "05 - We Can Win.wav" WAVE
TRACK 05 AUDIO
TITLE "We Can Win"
PERFORMER "Rod Stewart"
INDEX 01 00:00:00
FILE "06 - Another Country.wav" WAVE
TRACK 06 AUDIO
TITLE "Another Country"
PERFORMER "Rod Stewart"
INDEX 01 00:00:00
FILE "07 - Way Back Home.wav" WAVE
TRACK 07 AUDIO
TITLE "Way Back Home"
PERFORMER "Rod Stewart"
INDEX 01 00:00:00
FILE "08 - Can We Stay Home Tonight.wav" WAVE
TRACK 08 AUDIO
TITLE "Can We Stay Home Tonight"
PERFORMER "Rod Stewart"
INDEX 01 00:00:00
FILE "09 - Batman Superman Spiderman.wav" WAVE
TRACK 09 AUDIO
TITLE "Batman Superman Spiderman"
PERFORMER "Rod Stewart"
INDEX 01 00:00:00
FILE "10 - The Drinking Song.wav" WAVE
TRACK 10 AUDIO
TITLE "The Drinking Song"
PERFORMER "Rod Stewart"
INDEX 01 00:00:00
FILE "11 - Hold The Line.wav" WAVE
TRACK 11 AUDIO
TITLE "Hold The Line"
PERFORMER "Rod Stewart"
INDEX 01 00:00:00
FILE "12 - A Friend For Life.wav" WAVE
TRACK 12 AUDIO
TITLE "A Friend For Life"
PERFORMER "Rod Stewart"
INDEX 01 00:00:00
FILE "13 - Every Rock'N'Roll Song To Me.wav" WAVE
TRACK 13 AUDIO
TITLE "Every Rock'N'Roll Song To Me"
PERFORMER "Rod Stewart"
INDEX 01 00:00:00
FILE "14 - One Night With You.wav" WAVE
TRACK 14 AUDIO
TITLE "One Night With You"
PERFORMER "Rod Stewart"
INDEX 01 00:00:00
FILE "15 - Last Train Home.wav" WAVE
TRACK 15 AUDIO
TITLE "Last Train Home"
PERFORMER "Rod Stewart"
INDEX 01 00:00:00
Лог проверки качества
-----------------------
DON'T MODIFY THIS FILE
-----------------------
PERFORMER: auCDtect Task Manager, ver. 1.5.1RC6 build 1.5.1.7
Copyright (c) 2008-2010 y-soft. All rights reserved
http://y-soft.org
ANALYZER: auCDtect: CD records authenticity detector, version 0.8.2
Copyright (c) 2004 Oleg Berngardt. All rights reserved.
Copyright (c) 2004 Alexander Djourik. All rights reserved.
FILE: 01 - Love Is.wav
Size: 41630444 Hash: 89675443AF910EE90BD66C1040907320 Accuracy: -m0
Conclusion: CDDA 100%
Signature: A28D76D559B0C6140ADBADAB09A0C37ED9356F9E
FILE: 02 - Please.wav
Size: 46569644 Hash: BBD8066714558BC48E26C50537893BC0 Accuracy: -m0
Conclusion: CDDA 100%
Signature: 8662854C60A371028D8CBA4181F4369666C8DCAA
FILE: 03 - Walking In The Sunshine.wav
Size: 47980844 Hash: 88B97CA8A7715B44317F77DAAC500705 Accuracy: -m0
Conclusion: CDDA 100%
Signature: 969378861C68AEC21F3A3D24DB662F990A6D1902
FILE: 04 - Love And Be Loved.wav
Size: 31133468 Hash: B8CA470798258395C418FE393A790AC0 Accuracy: -m0
Conclusion: CDDA 100%
Signature: 24552BD01DC5206C0780F47FC2C176304C590BAE
FILE: 05 - We Can Win.wav
Size: 53096444 Hash: F53F3DD4EDFB5538FE048EBB61C4A676 Accuracy: -m0
Conclusion: CDDA 100%
Signature: 0728CE62D5ECDB0C29CB935CBA224755EFFCBF8D
FILE: 06 - Another Country.wav
Size: 37131068 Hash: BD44730EE706F3A88A4070E637BBC312 Accuracy: -m0
Conclusion: CDDA 100%
Signature: C216C071F0A04B1D86752C9A846956012AD807CD
FILE: 07 - Way Back Home.wav
Size: 48855788 Hash: F3E05A26B24AB9D010900DC701F0CE90 Accuracy: -m0
Conclusion: CDDA 100%
Signature: 26738F369FCC1D536A32C3515B2A0570F2CDFEFE
FILE: 08 - Can We Stay Home Tonight.wav
Size: 43218044 Hash: D2000A6727FC656970B2D7450237A47A Accuracy: -m0
Conclusion: CDDA 100%
Signature: ED856C5261799E45B032EFDFC6A7B01689C2CF2E
FILE: 09 - Batman Superman Spiderman.wav
Size: 37926044 Hash: 487FB21EDEFBC3C7EA3193584D2C7B9D Accuracy: -m0
Conclusion: CDDA 100%
Signature: 03D77BAF1F1A61C4C1FA99B54E2D913E625A31D7
FILE: 10 - The Drinking Song.wav
Size: 38631644 Hash: F3A1653DD158952DD9FBFDDA4368B144 Accuracy: -m0
Conclusion: CDDA 100%
Signature: 482D07F26FA0D726AAD8690BBCF3FBAAB3DFB98D
FILE: 11 - Hold The Line.wav
Size: 43570844 Hash: D6404B5ED768E1818CD54BBC2A7EBFE5 Accuracy: -m0
Conclusion: CDDA 100%
Signature: B9CCC05919DC83E7D72776533B7410FE81CC4BCB
FILE: 12 - A Friend For Life.wav
Size: 50097644 Hash: 81D0F168D116C9306EEC62229A563A77 Accuracy: -m0
Conclusion: CDDA 100%
Signature: 2820B5016C5EF7715FD639478CE8DFA8012F484A
FILE: 13 - Every Rock'N'Roll Song To Me.wav
Size: 35456444 Hash: E16E602081A02254E29637B5B46134DD Accuracy: -m0
Conclusion: CDDA 100%
Signature: 8CC3674356E8B9E4E2AB37E26CD03998E476BD05
FILE: 14 - One Night With You.wav
Size: 37749644 Hash: 440AF92F8A4E19105B12295CA2FE52C0 Accuracy: -m0
Conclusion: CDDA 100%
Signature: E6CACF1DEDA1835003E08F816DAF0D45E07A0861
FILE: 15 - Last Train Home.wav
Size: 48775820 Hash: 4050C56DA9299942A600F670F6B8BB13 Accuracy: -m0
Conclusion: CDDA 100%
Signature: D7F9FB3BB51C3D81B21187B24E03282526BDC331
Скриншот спектра частот
Dynamic Range


Доп. информация: Издание неофициальное, частная коллекция.
Об исполнителе (группе)
Если вы не знаете сэра Родерика Дэвида Стюарта, то:
https://ru.wikipedia.org/wiki/%D0%A1%D1%82%D1%8E%D0%B0%D1%80%D1%82,_%D0%A0%D0%BE%D0%B4
Download
Для скачивания .torrent файлов необходима регистрация
Сайт не распространяет и не хранит электронные версии произведений, а лишь предоставляет доступ к создаваемому пользователями каталогу ссылок на торрент-файлы, которые содержат только списки хеш-сумм
[Профиль]  [ЛС] 

Ready.zp

Moderator

Стаж: 10 лет 9 месяцев

Сообщений: 5384

Ready.zp · 07-Июн-18 20:42 (спустя 2 часа 39 мин.)

komory333 писал(а):
75473450Издатель (лейбл): KronStudioLab
# сомнительно
[Профиль]  [ЛС] 

komory333

Стаж: 11 лет 8 месяцев

Сообщений: 113


komory333 · 08-Июн-18 10:53 (спустя 14 часов)

Classic / Hard Rock ?
Спасибо за поправку, но в этом альбоме не услышал. Sorry...
[Профиль]  [ЛС] 

progbeaver

Стаж: 1 год 7 месяцев

Сообщений: 81

progbeaver · 09-Июн-18 19:56 (спустя 1 день 9 часов)

komory333 не услышали здесь классический рок? А, простите, что Вы услышали? Может поделитесь? И что в Вашем понимании "Classic Rock", может просветите нас, баранов бестолковых? А то ж мы тут как в потёмках! Не знаем, что и чем называть, да? А пока думаете, что ответить, почитайте тут, может это поможет Вам расставить все точки над "Ё" и над "Ї".
[Профиль]  [ЛС] 

komory333

Стаж: 11 лет 8 месяцев

Сообщений: 113


komory333 · 09-Июн-18 23:06 (спустя 3 часа)

progbeaver

И что там Вика про Classic/Hard Rock пишет?
Не знаете, мне не верите, тогда ознакомьтесь:

или: https://i.imgur.com/tksNFEB.png
[Профиль]  [ЛС] 

Slava Z.

Top Bonus 02* 500GB

Стаж: 11 лет

Сообщений: 1230

Slava Z. · 10-Июн-18 08:28 (спустя 9 часов)

Про звук лучше бы написали.... Что там KSL сделали на этот раз ?
[Профиль]  [ЛС] 

Alex_Dm64

Стаж: 9 лет 7 месяцев

Сообщений: 216

Alex_Dm64 · 10-Июн-18 23:59 (спустя 15 часов, ред. 21-Июн-18 10:50)

Ready.zp писал(а):
75474162
komory333 писал(а):
75473450Издатель (лейбл): KronStudioLab
# сомнительно
Почему сомнительно? Правда никакой путной информации в сети об этом лейбле не нашел, но звук хороший. Для CD.
Пришел с дискогса винил, послушал - звук как на CD. Ожидал лучшего.
[Профиль]  [ЛС] 

progbeaver

Стаж: 1 год 7 месяцев

Сообщений: 81

progbeaver · 03-Июл-18 19:43 (спустя 22 дня, ред. 03-Июл-18 19:43)

komory333 а разве софт рок и поп рок не могут быть Классик Роком? Вы меня стараетесь убедить? Того, который вырос на этих альбомах 60-70-х годов, который сам видел рождение этих звёзд, восхождение РОКА и этих "классификаций" пока ещё и не задумывалось? Я жил уже в те времена, когда вся, ВСЯ! рок музыка называлась знаете как? Поп-музыкой! И Пурпули, и Цеппелины, и Назареты, и.... простите, много (мной) уважаемый Род Стюарт тогда ещё с группой! А сейчас Вы пытаетесь сунуть мне под нос то, что приличный меломан даже туалетной бумагой не назовёт? И даже тут - что Вы доказали? Что есть Классика, и что есть ценность преходящая? Разберитесь, может потом продолжим "просветительную" беседу.
[Профиль]  [ЛС] 

komory333

Стаж: 11 лет 8 месяцев

Сообщений: 113


komory333 · 03-Июл-18 22:35 (спустя 2 часа 51 мин.)

Уважаемый товарищ progbeaver!
Когда-то Род пел строго рок и рок-н-ролл, позже перепел попсовые хиты The Great American Songbook, a в этот раз он напел крайне пёстрый альбом с попсой, балладами и кельтикой.
Если вас не удовлетворяют скрины с наиболее респектабельных муз-порталов и муз-магазинов, то это не моя проблема. Я всего лишь хочу вам напомнить название раздела: Classic Rock & Hard Rock
Харда я в этом альбоме не слышу. Soft - да. Вот и весь скаЗ.
Удачи )
[Профиль]  [ЛС] 

progbeaver

Стаж: 1 год 7 месяцев

Сообщений: 81

progbeaver · 04-Июл-18 21:17 (спустя 22 часа, ред. 04-Июл-18 21:17)

komory333 писал(а):
75615440Харда я в этом альбоме не слышу.
А где я доказывал обратное? Я доказывал, что Род в Аллее Рок-н-Ролла уже сколько? Лет 20? Это не относит его к ""Классическому" року? Именно это я и пытаюсь Вам сказать. Но наш разговор становится похожим на беседу слепого с глухим. И это не моя проблема.
progbeaver писал(а):
75483272komory333 не услышали здесь классический рок? А, простите, что Вы услышали? Может поделитесь? И что в Вашем понимании "Classic Rock", может просветите нас, баранов бестолковых?

И не нужно мне рассказывать, что и когда пел Род. Всё его творчество происходило на моих глазах, и он всегда для меня стоял в первых рядах мировой классики рока.
komory333 писал(а):
75615440Я всего лишь хочу вам напомнить название раздела: Classic Rock & Hard Rock
[Профиль]  [ЛС] 

bot · 15-Апр-19 14:37 (спустя 9 месяцев)

Тема была перенесена из форума Classic Rock & Hard Rock (lossless) в форум Музыка (lossless)
Ready.zp
 
 
Ответить
Loading...
Error