[RM] [restored] [declipped] [16/44] (Progressive Metal, Neoclassical Metal) Symphony X - Paradise Lost - 2007, FLAC (tracks+.cue)

Страницы:  1

Ответить
Автор
Сообщение

Лисной Йожыг

Стаж: 10 лет 9 месяцев

Сообщений: 922

Лисной Йожыг · 27-Июл-18 00:16 (11 месяцев назад)


Жанр: Progressive Metal, Neoclassical Metal
Год выпуска: 2007
Аудио кодек: FLAC
Тип рипа: tracks+.cue
Формат раздачи: 16/44
Продолжительность: 01:04:34
Наличие сканов в содержимом раздачи: нет
Исходник для обработки: Дискография
Обработка: Устранение клиппинга, восстановление динамического диапазона.

Studio albums
2007 - Paradise Lost
01. Oculus ex Inferni (2:35)
02. Set the World on Fire (The Lie of Lies) (5:55)
03. Domination (6:30)
04. The Serpent's Kiss (5:04)
05. Paradise Lost (6:32)
06. Eve of Seduction (5:04)
07. The Walls of Babylon (8:16)
08. Seven (7:01)
09. The Sacrifice (4:50)
10. Revelation (Divus Pennae ex Tragoedia) (9:21)
11. Sacrifice Prelude [demo] [bonus track] (1:37)
12. Opening Alternate Intro [demo] [bonus track] (1:50)
Исходное издание: Victor ‎– VICP-63905
Обработка: Проведен деклиппинг и декомпрессия материала. Убран щелчок в треке "Domination".

Спектр, АЧХ, Уровень записи, Динамический диапазон
Код:
foobar2000 1.3.9 / Замер динамического диапазона (DR) 1.1.1
Дата отчёта: 2018-07-27 00:06:03
--------------------------------------------------------------------------------
Анализ:   Symphony X / Paradise Lost
--------------------------------------------------------------------------------
DR         Пики          RMS        Продолжительность трека
--------------------------------------------------------------------------------
DR11      -2.30 дБ   -16.32 дБ      2:35 1-Oculus ex Inferni
DR11      -0.75 дБ   -13.26 дБ      5:55 2-Set the World on Fire (The Lie of Lies)
DR11      -0.62 дБ   -12.31 дБ      6:30 3-Domination
DR11      -0.50 дБ   -13.13 дБ      5:04 4-The Serpent's Kiss
DR11      -0.59 дБ   -13.38 дБ      6:32 5-Paradise Lost
DR11      -0.66 дБ   -12.67 дБ      5:04 6-Eve of Seduction
DR12      -0.67 дБ   -13.66 дБ      8:16 7-The Walls of Babylon
DR10      -1.15 дБ   -12.54 дБ      7:01 8-Seven
DR11      -0.93 дБ   -13.73 дБ      4:50 9-The Sacrifice
DR11      -0.68 дБ   -13.58 дБ      9:21 10-Revelation (Divus Pennae ex Tragoedia)
DR13      -5.38 дБ   -23.60 дБ      1:37 11-Sacrifice Prelude [demo] [bonus track]
DR13      -5.27 дБ   -22.34 дБ      1:50 12-Opening Alternate Intro [demo] [bonus track]
--------------------------------------------------------------------------------
Количество треков: 12
Реальные значения DR: DR11
Частота:  44100 Гц
Каналов:  2
Разрядность:   16
Битрейт:  912 кбит/с
Кодек:   FLAC
Дополнительная информация
Обработка: Adobe Audition с плагинами Stereo Tool, Fabfilter Pro-L 2, TDR Limiter 6 GE, Fabfilter Pro-MB
Мониторинг результата:
Стационарная аппаратура: NAD D 1050 + Beyerdynamic DT 990 Pro и Rotel RA-10 + Jamo C603
Мобильная аппаратура: Meizu MX2 + Sennheiser CX 980
Примечание: Деклиппинг и восстановление динамического диапазона - не панацея от некачественной записи. Целью реставрации является меньшая усталость при прослушивании, и звучание, приближенное к тому, которое задумывалось звукорежиссером, до вмешательства маркетологов.
Материалы по теме "Война громкости": 1, 2, 3, 4

Другие раздачи в рамках проекта можно найти здесь
Download
Для скачивания .torrent файлов необходима регистрация
Сайт не распространяет и не хранит электронные версии произведений, а лишь предоставляет доступ к создаваемому пользователями каталогу ссылок на торрент-файлы, которые содержат только списки хеш-сумм
[Профиль]  [ЛС] 

Maxilimius

Стаж: 2 года 4 месяца

Сообщений: 14

Maxilimius · 27-Июл-18 15:43 (спустя 15 часов)

Отличный альбом! В отличном качестве!
[Профиль]  [ЛС] 

Al_cluw

Стаж: 7 лет 8 месяцев

Сообщений: 380


Al_cluw · 10-Авг-18 23:37 (спустя 14 дней)

Слышал у них только самый первый альбом и Сумерки Олимпа, понравились, особенно Сумерки.
Надо бы поизучать побольше.
Лисной Йожыг, а другие альбомы в вашей обработке возможны?
За этот альбом спасибо, знакомлюсь...
[Профиль]  [ЛС] 

Лисной Йожыг

Стаж: 10 лет 9 месяцев

Сообщений: 922

Лисной Йожыг · 11-Авг-18 13:42 (спустя 14 часов)

Al_cluw, пожалуйста.
Есть вполне себе реальная перспектива расширить раздачу. Но, пока что в планах выложить другой материал.
[Профиль]  [ЛС] 

Al_cluw

Стаж: 7 лет 8 месяцев

Сообщений: 380


Al_cluw · 11-Авг-18 20:24 (спустя 6 часов)

Лисной Йожыг
не к спеху, понятно, что дело сложное, обработка. Зато результаты впечатляют.
Я еще к вашему материалу по Judas Priest и Kingdom Come присматриваюсь. Надо будет скачать и переслушать.
P.S. Послушал Paradise Lost, не совсем моя музыка, но тем не менее звучание впечатлило - смог комфортно послушать. Отторжения нет. Если остальные обработки делать будете, то тоже ознакомлюсь.
Еще раз спасибо.
[Профиль]  [ЛС] 

Mutant2009

Стаж: 10 лет 6 месяцев

Сообщений: 139

Mutant2009 · 18-Май-19 21:29 (спустя 9 месяцев)

Спасибо.
Но почему именно этот альбом, а не сами знаете какой ?
[Профиль]  [ЛС] 

Лисной Йожыг

Стаж: 10 лет 9 месяцев

Сообщений: 922

Лисной Йожыг · 21-Май-19 10:25 (спустя 2 дня 12 часов)

Mutant2009, пожалуйста. Потому что он мне понравился больше других, только и всего
[Профиль]  [ЛС] 
 
Ответить
Loading...
Error