(Hard Rock) [Restored] [24/192][RM]Billy F Gibbons - The Big Bad Blues - 2018, FLAC (tracks), lossless

Страницы:  1

Ответить
Автор
Сообщение

Bigger888

Стаж: 9 лет 6 месяцев

Сообщений: 55

Bigger888 · 29-Сен-18 01:28 (9 месяцев назад, ред. 29-Сен-18 09:51)

Billy F Gibbons - The Big Bad Blues
Жанр: Hard Rock / Blues Rock
Носитель: WEB
Год издания: 2018
Аудиокодек: FLAC (*.flac)
Тип рипа: tracks 24/192
Продолжительность: 39:53
Источник (релизер): http://realsound.adderall.ru
Наличие сканов в содержимом раздачи: нет
Треклист:
01. Missin’ Yo’ Kissin’ (3:19)
02. My Baby She Rocks (3:50)
03. Second Line (3:40)
04. Standing Around Crying (4:24)
05. Let The Left Hand Know (3:53)
06. Bring It To Jerome (4:34)
07. That’s What She Said (3:13)
08. Mo’ Slower Blues (3:57)
09. Hollywood 151 (3:21)
10. Rollin’ And Tumblin’ (2:57)
11. Crackin’ Up (2:43)
Лог проверки качества
foobar2000 1.4 / Dynamic Range Meter 1.1.1
log date: 2018-09-29 00:48:07
--------------------------------------------------------------------------------
Analyzed: Billy F Gibbons / The Big Bad Blues
--------------------------------------------------------------------------------
DR Peak RMS Duration Track
--------------------------------------------------------------------------------
DR11 -1.29 dB -14.28 dB 3:19 01-Missin’ Yo’ Kissin’
DR12 -0.11 dB -13.86 dB 3:50 02-My Baby She Rocks
DR11 -1.59 dB -14.11 dB 3:40 03-Second Line
DR12 -1.11 dB -14.74 dB 4:24 04-Standing Around Crying
DR10 -1.71 dB -13.37 dB 3:53 05-Let The Left Hand Know
DR12 -0.76 dB -14.41 dB 4:34 06-Bring It To Jerome
DR12 -1.07 dB -14.40 dB 3:13 07-That’s What She Said
DR12 -0.80 dB -14.69 dB 3:57 08-Mo’ Slower Blues
DR12 -1.18 dB -14.39 dB 3:21 09-Hollywood 151
DR11 -0.73 dB -13.45 dB 2:57 10-Rollin’ And Tumblin’
DR13 -0.93 dB -15.11 dB 2:43 11-Crackin’ Up
--------------------------------------------------------------------------------
Number of tracks: 11
Official DR value: DR12
Samplerate: 192000 Hz
Channels: 2
Bits per sample: 24
Bitrate: 5698 kbps
Codec: FLAC
================================================================================
Скриншот спектра частот
Доп. информация
Virtual Vinyl Mastering
Деклиппирование, расширение дин.диапазона, интерполирование, спектрализация.
Программы: Sound Forge 12, Magix Audio Cleaning Lab 18, Acon Digital DeClip, FabFilter, ReeLight
Download
Для скачивания .torrent файлов необходима регистрация
Сайт не распространяет и не хранит электронные версии произведений, а лишь предоставляет доступ к создаваемому пользователями каталогу ссылок на торрент-файлы, которые содержат только списки хеш-сумм
[Профиль]  [ЛС] 

kasatkal

Moderator

Стаж: 11 лет

Сообщений: 14170

kasatkal · 29-Сен-18 09:46 (спустя 8 часов)

Bigger888
Прочтите, пожалуйста:
3. Требования к оформлению раздачи.
Исправьте и отпишитесь, пожалуйста.
[Профиль]  [ЛС] 

kasatkal

Moderator

Стаж: 11 лет

Сообщений: 14170

kasatkal · 29-Сен-18 10:43 (спустя 57 мин.)

# сомнительно:
5.2 апконвертам 16 > 24 бит и 44.1 > 48 кГц и выше...
[Профиль]  [ЛС] 

Alexis196215

Стаж: 6 лет 3 месяца

Сообщений: 95


Alexis196215 · 23-Ноя-18 21:48 (спустя 1 месяц 24 дня)

А что никто не напишет как звучит?
[Профиль]  [ЛС] 

emule-C2H5OH

Лауреат конкурса

Стаж: 11 лет

Сообщений: 89

emule-C2H5OH · 24-Ноя-18 02:24 (спустя 4 часа)

2 Alexis196215 - количество сказавших "Спасибо" как бы однозначно говорит о том, что звучит замечательно.
[Профиль]  [ЛС] 

Benderlab

Стаж: 9 лет

Сообщений: 31


Benderlab · 28-Дек-18 14:55 (спустя 1 месяц 4 дня)

Звучит как типичный винилрип, то есть никак ,а спасибо говорит о количестве любителей "никак"
[Профиль]  [ЛС] 

emule-C2H5OH

Лауреат конкурса

Стаж: 11 лет

Сообщений: 89

emule-C2H5OH · 17-Июн-19 23:29 (спустя 5 месяцев 20 дней, ред. 15-Июл-19 23:11)

цитата из Вас -
Benderlab писал(а):
76574291Звучит как типичный винилрип
Типичный винилрип - это значительно лучше чем CDрип - для понимания этого необходимо и достаточно, поставить на комп "foobar2000", установить под него плагин "АВХ", подключить к компу любой USB DAC HiRes 0-50 000 или лучше, к нему наушники HiRes 10-40 000 или лучше и... сравнить винил-рип с CD-рипом...
PS если Вы слушаете со смарта, а не с HiRes плеера, и если Ваши наушники по умолчанию режут звук на 100-16 000, то кто Вам злобный буратина?
N.B. Да, HI-Res плееер это дорого - минимум 250 евро, а HI-Res внутриканальные наушники это ещё дороже - минимум 350 евро. А разве кто-либо говорил, что удовольствие должно стоить недорого? Дёшево стоит только дешёвка.
[Профиль]  [ЛС] 
 
Ответить
Loading...
Error