[RM] [restored] [declipped] [16/44] (Hard Rock, Blues Rock) Aerosmith - Get a Grip - 1993, FLAC (tracks+.cue)

Страницы:  1

Ответить
Автор
Сообщение

Лисной Йожыг

Стаж: 10 лет 9 месяцев

Сообщений: 922

Лисной Йожыг · 22-Мар-19 19:47 (3 месяца 30 дней назад, ред. 23-Апр-19 17:09)



Жанр: Hard Rock, Blues Rock
Год выпуска: 1993
Аудио кодек: FLAC
Тип рипа: tracks+.cue
Формат раздачи: 16/44
Продолжительность: 01:09:47
Наличие сканов в содержимом раздачи: нет
Исходник для обработки: Дискография
Обработка: Устранение клиппинга, эквализация.

Studio albums
1993 - Get a Grip
01. Intro (0:24)
02. Eat еhe Rich (4:10)
03. Get a Grip (3:58)
04. Fever (4:15)
05. Livin' on the Edge (6:07)
06. Flesh (5:57)
07. Walk on Down (3:39)
08. Shut Up and Dance (4:56)
09. Cryin' (5:08)
10. Gotta Love It (5:58)
11. Crazy (5:17)
12. Line Up [feat. Lenny Kravitz] (4:03)
13. Can't Stop Messin' (3:31)
14. Amazing (5:56)
15. Boogie Man (2:18)
16. Don't Stop [bonus track] (4:09)
Исходное издание: Geffen Records ‎– MVCG-108, Geffen Records ‎– GED 21790
Обработка: Проведены деклиппинг, эквализация.

Примечание: Трек №16 взят с сингла "Livin' on the Edge".
Спектр, АЧХ, Уровень записи, Динамический диапазон
Код:
foobar2000 1.3.19 / Замер динамического диапазона (DR) 1.1.1
Дата отчёта: 2019-03-22 19:15:45
--------------------------------------------------------------------------------
Анализ:   Aerosmith / Get a Grip
--------------------------------------------------------------------------------
DR         Пики          RMS        Продолжительность трека
--------------------------------------------------------------------------------
DR12      -4.16 дБ   -19.11 дБ      0:24 01-Intro
DR12      -1.20 дБ   -14.85 дБ      4:10 02-Eat еhe Rich
DR12      -0.50 дБ   -13.86 дБ      3:58 03-Get a Grip
DR11      -1.38 дБ   -13.57 дБ      4:15 04-Fever
DR11      -1.14 дБ   -14.50 дБ      6:07 05-Livin' on the Edge
DR10      -1.64 дБ   -14.18 дБ      5:57 06-Flesh
DR12      -1.13 дБ   -14.91 дБ      3:39 07-Walk on Down
DR12      -1.19 дБ   -13.75 дБ      4:56 08-Shut Up and Dance
DR11      -1.18 дБ   -13.79 дБ      5:08 09-Cryin'
DR12      -1.47 дБ   -14.78 дБ      5:58 10-Gotta Love It
DR12      -0.93 дБ   -14.02 дБ      5:17 11-Crazy
DR12      -0.85 дБ   -13.77 дБ      4:03 12-Line Up [feat. Lenny Kravitz]
DR12      -0.55 дБ   -13.73 дБ      3:31 13-Can't Stop Messin'
DR12      -1.09 дБ   -14.34 дБ      5:56 14-Amazing
DR8       -2.53 дБ   -13.66 дБ      2:18 15-Boogie Man
DR12      -0.50 дБ   -14.54 дБ      4:09 16-Don't Stop [bonus track]
--------------------------------------------------------------------------------
Количество треков: 16
Реальные значения DR: DR11
Частота:  44100 Гц
Каналов:  2
Разрядность:   16
Битрейт:  955 кбит/с
Кодек:   FLAC
Дополнительная информация
Обработка: Adobe Audition с плагинами Thimeo Stereo Tool, Fabfilter Pro-L2, Fabfilter Pro-Q3, Voxengo Elephant, GoodHertz Midside 3
Мониторинг результата:
Стационарная аппаратура: NAD D 1050 + Beyerdynamic DT 990 Pro и Rotel RA-10 + Jamo C603
Мобильная аппаратура: Meizu MX2 + Sennheiser CX 980
Примечание: Деклиппинг и восстановление динамического диапазона - не панацея от некачественной записи. Целью реставрации является меньшая усталость при прослушивании, и звучание, приближенное к тому, которое задумывалось звукорежиссером, до вмешательства маркетологов.
Материалы по теме "Война громкости": 1, 2, 3, 4


Другие раздачи в рамках проекта можно найти здесь
Download
Для скачивания .torrent файлов необходима регистрация
Сайт не распространяет и не хранит электронные версии произведений, а лишь предоставляет доступ к создаваемому пользователями каталогу ссылок на торрент-файлы, которые содержат только списки хеш-сумм
[Профиль]  [ЛС] 

Pretender

Стаж: 12 лет 6 месяцев

Сообщений: 1401


Pretender · 24-Мар-19 18:29 (спустя 1 день 22 часа)

Спасибо!
Интересный выбор альбома.
Надеюсь, что когда-нибудь услышим Ваш вариант некоторых альбомов Оззи (1995, 2001, 1991 и пожалуй 1986).
[Профиль]  [ЛС] 

mahalata

Стаж: 9 лет 11 месяцев

Сообщений: 20


mahalata · 25-Мар-19 12:52 (спустя 18 часов)

Pretender писал(а):
77088355Спасибо!
Интересный выбор альбома.
:
Я думал так же
[Профиль]  [ЛС] 

quanon

Стаж: 5 лет 3 месяца

Сообщений: 199

quanon · 14-Апр-19 15:24 (спустя 20 дней)

самый удачный пожалуй
баланс мелодичности и "роковости"
тайлер - красавец здесь
9 баллов из 10
[Профиль]  [ЛС] 

kshik

Стаж: 9 лет

Сообщений: 7

kshik · 21-Июн-19 08:22 (спустя 2 месяца 6 дней)

пипл встаньте плиз на раздачу! неделю не могу выкачать! на 34% как остановилось так неделю ни с места
[Профиль]  [ЛС] 

kshik

Стаж: 9 лет

Сообщений: 7

kshik · 01-Июл-19 08:49 (спустя 10 дней)

торрент мертв
ни у одного сидирующего нет полного объема сабжа
[Профиль]  [ЛС] 
 
Ответить
Loading...
Error