(Hard Rock) [MC] [24/48] [RM] [SN] Rainbow - Ballads - 1995, FLAC (image+.cue), lossless

Страницы:  1

Ответить
Автор
Сообщение

samopal records

VIP (Заслуженный)

Стаж: 9 лет 4 месяца

Сообщений: 5250

samopal records · 24-Апр-19 10:31 (2 месяца 27 дней назад)

Rainbow - Ballads (1995)
Жанр: Hard Rock
Носитель: MC
Страна-производитель диска (релиза): Poland
Год издания: 1995
Издатель (лейбл): Audio Max
Номер по каталогу: 492
Аудиокодек: FLAC (*.flac)
Тип рипа: image+.cue
Продолжительность: 00:42:20
Источник: собственный рип
Формат записи: 24/96
Формат раздачи: 24/48
Тэги в .cue: прописаны
Dynamic Range Meter: DR11
Код класса состояния магнитоленты: VG
Устройство воспроизведения: AKAI GX 95MK2
Магнитная головка: LC-OFC SGX (x2)
Предварительный усилитель: встроенный
АЦП: [email protected]
Программа-оцифровщик: Adobe Audition CS6 5.0.2.
Обработка: удаление артефактов, частичные реставрация
Наличие сканов в содержимом раздачи: да
Трэклист:

Side A:
01. Cath The Rainbow
02. Maybe Next Time
03. Tearin' Out My Heart
04. Anybody There
05. The Temple Of The King
Side B:
06. Snowman
07. Love's No Friend
08. Street Of Dreams
09. Rainbow Eyes
Dynamic Range Meter (DR11):
foobar2000 1.1.3 / Dynamic Range Meter 1.1.1
log date: 2019-04-24 12:40:15
--------------------------------------------------------------------------------
Analyzed: Rainbow / Ballads
--------------------------------------------------------------------------------
DR Peak RMS Duration Track
--------------------------------------------------------------------------------
DR12 -0.10 dB -15.88 dB 6:40 ?-01. Cath The Rainbow
DR11 -0.10 dB -13.82 dB 3:19 ?-02. Maybe Next Time
DR10 -0.10 dB -13.94 dB 4:06 ?-03. Tearin' Out My Heart
DR11 -1.76 dB -14.64 dB 2:39 ?-04. Anybody There
DR11 -0.10 dB -14.46 dB 4:43 ?-05. The Temple Of The King
DR11 -0.10 dB -13.97 dB 4:33 ?-06. Snowman
DR10 -0.10 dB -12.71 dB 4:38 ?-07. Love's No Friend
DR12 -0.10 dB -14.35 dB 4:23 ?-08. Street Of Dreams
DR12 -0.10 dB -16.57 dB 7:20 ?-09. Rainbow Eyes
--------------------------------------------------------------------------------
Number of tracks: 9
Official DR value: DR11
Samplerate: 48000 Hz
Channels: 2
Bits per sample: 24
Bitrate: 1635 kbps
Codec: FLAC
================================================================================
Содержание индексной карты (.CUE)
REM GENRE "Hard Rock"
REM DATE "1995"
REM COMMENT "Cassette, Compilation, Unofficial Release, Audio Max - 492, Poland"
PERFORMER "Rainbow"
TITLE "Ballads"
FILE "01. Side A.flac" WAVE
TRACK 01 AUDIO
TITLE "01. Cath The Rainbow"
INDEX 01 00:00:00
TRACK 02 AUDIO
TITLE "02. Maybe Next Time"
INDEX 01 06:39:49
TRACK 03 AUDIO
TITLE "03. Tearin' Out My Heart"
INDEX 01 09:58:56
TRACK 04 AUDIO
TITLE "04. Anybody There"
INDEX 01 14:04:29
TRACK 05 AUDIO
TITLE "05. The Temple Of The King"
INDEX 01 16:43:01
FILE "02. Side 2.flac" WAVE
TRACK 06 AUDIO
TITLE "06. Snowman"
INDEX 01 00:00:00
TRACK 07 AUDIO
TITLE "07. Love's No Friend"
INDEX 01 04:33:18
TRACK 08 AUDIO
TITLE "08. Street Of Dreams"
INDEX 01 09:11:45
TRACK 09 AUDIO
TITLE "09. Rainbow Eyes"
INDEX 01 13:34:43
Covers:
Уровень записи, спектр, АЧХ:


Download
Для скачивания .torrent файлов необходима регистрация
Сайт не распространяет и не хранит электронные версии произведений, а лишь предоставляет доступ к создаваемому пользователями каталогу ссылок на торрент-файлы, которые содержат только списки хеш-сумм
[Профиль]  [ЛС] 
 
Ответить
Loading...
Error