(Hard Rock, Classic Rock) [MC] [24/48] [RM] [SN] Uriah Heep - The Best - 1995, FLAC (image+.cue), lossless

Страницы:  1

Ответить
Автор
Сообщение

samopal records

VIP (Заслуженный)

Стаж: 9 лет 4 месяца

Сообщений: 5248

samopal records · 25-Апр-19 08:07 (2 месяца 24 дня назад, ред. 25-Апр-19 08:08)

Uriah Heep - The Best (1995)
Жанр: Hard Rock, Classic Rock
Носитель: MC
Страна-производитель диска (релиза): Poland
Год издания: 1995
Издатель (лейбл): Audio Max
Номер по каталогу: 83
Аудиокодек: FLAC (*.flac)
Тип рипа: image+.cue
Продолжительность: 00:45:54
Источник: собственный рип
Формат записи: 24/96
Формат раздачи: 24/48
Тэги в .cue: прописаны
Dynamic Range Meter: DR12
Код класса состояния магнитоленты: VG
Устройство воспроизведения: AKAI GX 95MK2
Магнитная головка: LC-OFC SGX (x2)
Предварительный усилитель: встроенный
АЦП: [email protected]
Программа-оцифровщик: Adobe Audition CS6 5.0.2.
Обработка: удаление артефактов, частичные реставрация
Наличие сканов в содержимом раздачи: да
Трэклист:

Side A:
01. Lady In Black
02. Gypsy
03. Keep On Ridin
04. Free Me
05. That's The Way That It Is
Side B:
06. So Tried
07. One Way Or Another
08. Too Scared To Run
09. Sweet Loraine
10. Free N' Easy
11. Love Machine
Dynamic Range Meter (DR12):
foobar2000 1.1.3 / Dynamic Range Meter 1.1.1
log date: 2019-04-25 11:02:50
--------------------------------------------------------------------------------
Analyzed: Uriah Heep / The Best
--------------------------------------------------------------------------------
DR Peak RMS Duration Track
--------------------------------------------------------------------------------
DR11 -0.10 dB -13.53 dB 4:46 ?-01. Lady In Black
DR10 -0.10 dB -13.33 dB 6:37 ?-02. Gypsy
DR14 -0.10 dB -17.66 dB 3:42 ?-03. Keep On Ridin
DR14 -0.10 dB -15.85 dB 3:33 ?-04. Free Me
DR14 -0.10 dB -16.31 dB 4:07 ?-05. That's The Way That It Is
DR12 -0.10 dB -14.49 dB 3:39 ?-06. So Tried
DR13 -0.21 dB -15.34 dB 4:39 ?-07. One Way Or Another
DR12 -0.10 dB -13.38 dB 3:49 ?-08. Too Scared To Run
DR11 -0.10 dB -13.30 dB 4:18 ?-09. Sweet Loraine
DR12 -0.10 dB -13.94 dB 3:05 ?-10. Free N'Easy
DR11 -0.10 dB -13.57 dB 3:39 ?-11. Love Machine
--------------------------------------------------------------------------------
Number of tracks: 11
Official DR value: DR12
Samplerate: 48000 Hz
Channels: 2
Bits per sample: 24
Bitrate: 1723 kbps
Codec: FLAC
================================================================================
Содержание индексной карты (.CUE)
REM GENRE "Hard Rock, Classic Rock"
REM DATE "1995"
REM COMMENT "Cassette, Compilation, Unofficial Release, Audio Max 83, Poland"
PERFORMER "Uriah Heep"
TITLE "The Best"
FILE "01. Side A.flac" WAVE
TRACK 01 AUDIO
TITLE "01. Lady In Black"
INDEX 01 00:00:00
TRACK 02 AUDIO
TITLE "02. Gypsy"
INDEX 01 04:46:12
TRACK 03 AUDIO
TITLE "03. Keep On Ridin"
INDEX 01 11:23:11
TRACK 04 AUDIO
TITLE "04. Free Me"
INDEX 01 15:05:24
TRACK 05 AUDIO
TITLE "05. That's The Way That It Is"
INDEX 01 18:38:54
FILE "02. Side B.flac" WAVE
TRACK 06 AUDIO
TITLE "06. So Tried"
INDEX 01 00:00:00
TRACK 07 AUDIO
TITLE "07. One Way Or Another"
INDEX 01 03:38:73
TRACK 08 AUDIO
TITLE "08. Too Scared To Run"
INDEX 01 08:17:44
TRACK 09 AUDIO
TITLE "09. Sweet Loraine"
INDEX 01 12:06:55
TRACK 10 AUDIO
TITLE "10. Free N'Easy"
INDEX 01 16:24:52
TRACK 11 AUDIO
TITLE "11. Love Machine"
INDEX 01 19:29:33
Уровень записи, спектр, АЧХ:


Download
Для скачивания .torrent файлов необходима регистрация
Сайт не распространяет и не хранит электронные версии произведений, а лишь предоставляет доступ к создаваемому пользователями каталогу ссылок на торрент-файлы, которые содержат только списки хеш-сумм
[Профиль]  [ЛС] 
 
Ответить
Loading...
Error