(Electronic, Synth-pop, Disco) [MC] [24/48] [RM] [SN] Bad Boys Blue - Super 20. Greatest Hits - 1995, FLAC (image+.cue), lossless

Страницы:  1

Ответить
Автор
Сообщение

samopal records

VIP (Заслуженный)

Стаж: 9 лет 4 месяца

Сообщений: 5248

samopal records · 29-Апр-19 06:58 (2 месяца 20 дней назад, ред. 29-Апр-19 08:27)

Bad Boys Blue - Super 20. Greatest Hits (1995)
Жанр: Electronic, Synth-pop, Disco
Носитель: MC
Страна-производитель диска (релиза): Ukraine
Год издания: 1995
Издатель (лейбл): Not On Label
Номер по каталогу: none
Аудиокодек: FLAC (*.flac)
Тип рипа: image+.cue
Продолжительность: 01:14:12
Источник: собственный рип
Формат записи: 24/96
Формат раздачи: 24/48
Тэги в .cue: прописаны
Dynamic Range Meter: DR12
Код класса состояния магнитоленты: VG
Устройство воспроизведения: AKAI GX 95MK2
Магнитная головка: LC-OFC SGX (x2)
Предварительный усилитель: встроенный
АЦП: [email protected]
Программа-оцифровщик: Adobe Audition CS6 5.0.2.
Обработка: удаление артефактов, частичные реставрация
Наличие сканов в содержимом раздачи: да



Трэклист:

Side A:
01. You're A Woman
02. I Wonna Hear Your Heartbeat (Sunday Girl)
03. A World Without You (Michelle)
04. Lady In Black (Radio Edit)
05. Hungry For Love (Radio Edit)
06. Don't Walk Away, Suzanne
07. Gimme, Gimme Your Lovin'
08. Blue Moon
09. Pretty Young Girl
10. Kisses And Tears (My One And Only)
Side B:
11. Fly Away
12. Show Me The Way
13. Chains Of Love
14. How I Need You
15. House Of Silence
16. I Totally Miss You
17. Save Your Love
18. Sooner Or Later
19. Where Have You Gone
20. What Else?
Dynamic Range Meter (DR12):
foobar2000 1.1.3 / Dynamic Range Meter 1.1.1
log date: 2019-04-29 08:50:09
--------------------------------------------------------------------------------
Analyzed: Bad Boys Blue / Super 20. Greatest Hits
--------------------------------------------------------------------------------
DR Peak RMS Duration Track
--------------------------------------------------------------------------------
DR12 -1.17 dB -14.54 dB 4:01 ?-01. You're A Woman
DR12 -1.39 dB -14.98 dB 4:05 ?-02. I Wonna Hear Your Heartbeat (Sunday Girl)
DR13 -0.10 dB -14.66 dB 3:40 ?-03. A World Without You (Michelle)
DR12 -0.45 dB -14.66 dB 3:51 ?-04. Lady In Black (Radio Edit)
DR12 -1.65 dB -14.70 dB 4:16 ?-05. Hungry For Love (Radio Edit)
DR12 -0.25 dB -14.14 dB 3:33 ?-06. Don't Walk Away, Suzanne
DR12 -1.01 dB -14.20 dB 3:20 ?-07. Gimme, Gimme Your Lovin'
DR12 -0.68 dB -13.88 dB 4:01 ?-08. Blue Moon
DR12 -1.35 dB -14.10 dB 3:36 ?-09. Pretty Young Girl
DR12 -1.21 dB -14.54 dB 2:50 ?-10. Kisses And Tears (My One And Only)
DR12 -0.10 dB -13.93 dB 3:46 ?-11. Fly Away
DR12 -0.10 dB -13.25 dB 3:19 ?-12. Show Me The Way
DR12 -0.27 dB -13.38 dB 3:48 ?-13. Chains Of Love
DR12 -0.35 dB -13.66 dB 3:40 ?-14. How I Need You
DR12 -0.63 dB -13.31 dB 3:55 ?-15. House Of Silence
DR12 -0.93 dB -13.95 dB 3:59 ?-16. I Totally Miss You
DR12 -0.11 dB -13.03 dB 4:05 ?-17. Save Your Love
DR11 -1.05 dB -13.44 dB 3:42 ?-18. Sooner Or Later
DR12 -0.28 dB -13.08 dB 3:30 ?-19. Where Have You Gone
DR11 -0.10 dB -12.47 dB 3:15 ?-20. What Else?
--------------------------------------------------------------------------------
Number of tracks: 20
Official DR value: DR12
Samplerate: 48000 Hz
Channels: 2
Bits per sample: 24
Bitrate: 1847 kbps
Codec: FLAC
================================================================================
Содержание индексной карты (.CUE)
REM GENRE "Electronic, Synth-pop, Disco"
REM DATE "1995"
REM COMMENT "Cassette, Compilation, Unofficial Release, Not On Label - none, Ukraine"
PERFORMER "Bad Boys Blue"
TITLE "Super 20. Greatest Hits"
FILE "01. SIde A.flac" WAVE
TRACK 01 AUDIO
TITLE "01. You're A Woman"
INDEX 01 00:00:00
TRACK 02 AUDIO
TITLE "02. I Wonna Hear Your Heartbeat (Sunday Girl)"
INDEX 01 04:00:72
TRACK 03 AUDIO
TITLE "03. A World Without You (Michelle)"
INDEX 01 08:06:22
TRACK 04 AUDIO
TITLE "04. Lady In Black (Radio Edit)"
INDEX 01 11:46:50
TRACK 05 AUDIO
TITLE "05. Hungry For Love (Radio Edit)"
INDEX 01 15:37:54
TRACK 06 AUDIO
TITLE "06. Don't Walk Away, Suzanne"
INDEX 01 19:53:22
TRACK 07 AUDIO
TITLE "07. Gimme, Gimme Your Lovin'"
INDEX 01 23:26:34
TRACK 08 AUDIO
TITLE "08. Blue Moon"
INDEX 01 26:46:28
TRACK 09 AUDIO
TITLE "09. Pretty Young Girl"
INDEX 01 30:47:21
TRACK 10 AUDIO
TITLE "10. Kisses And Tears (My One And Only)"
INDEX 01 34:22:60
FILE "02. Side B.flac" WAVE
TRACK 11 AUDIO
TITLE "11. Fly Away"
INDEX 01 00:00:00
TRACK 12 AUDIO
TITLE "12. Show Me The Way"
INDEX 01 03:45:59
TRACK 13 AUDIO
TITLE "13. Chains Of Love"
INDEX 01 07:05:18
TRACK 14 AUDIO
TITLE "14. How I Need You"
INDEX 01 10:53:08
TRACK 15 AUDIO
TITLE "15. House Of Silence"
INDEX 01 14:32:63
TRACK 16 AUDIO
TITLE "16. I Totally Miss You"
INDEX 01 18:27:27
TRACK 17 AUDIO
TITLE "17. Save Your Love"
INDEX 01 22:26:64
TRACK 18 AUDIO
TITLE "18. Sooner Or Later"
INDEX 01 26:31:44
TRACK 19 AUDIO
TITLE "19. Where Have You Gone"
INDEX 01 30:13:72
TRACK 20 AUDIO
TITLE "20. What Else?"
INDEX 01 33:44:27
Covers:
Скриншот спектра частот


Download
Для скачивания .torrent файлов необходима регистрация
Сайт не распространяет и не хранит электронные версии произведений, а лишь предоставляет доступ к создаваемому пользователями каталогу ссылок на торрент-файлы, которые содержат только списки хеш-сумм
[Профиль]  [ЛС] 

finner2

Стаж: 4 года 4 месяца

Сообщений: 3


finner2 · 19-Июл-19 08:18 (спустя 2 месяца 20 дней)

Удивительно. И как люди привыкают к такому звучанию
[Профиль]  [ЛС] 
 
Ответить
Loading...
Error