(Industrial) [CD] Rammstein - Rammstein [KSL Edition] - 2019, FLAC (tracks+.cue), lossless

Страницы:  1

Ответить
Автор
Сообщение

xXrammXx

Стаж: 10 лет 11 месяцев

Сообщений: 457

xXrammXx · 20-Май-19 12:13 (2 месяца 1 день назад, ред. 20-Май-19 12:53)

Rammstein / Rammstein [KSL Edition]
Жанр: Industrial
Носитель: CD
Год издания: 2019
Издатель (лейбл): KronStudioLab Int'l
Номер по каталогу: 52044 DM
Страна исполнителя (группы): Germany
Аудиокодек: FLAC (*.flac)
Тип рипа: tracks+.cue
Продолжительность: 46:22
Источник: интернет (неизвестен)
Наличие сканов в содержимом раздачи: нет
Треклист:
01. Deutschland (5:23)
02. Radio (4:37)
03. Zeig Dich (4:15)
04. Ausländer (3:51)
05. Sex (3:56)
06. Puppe (4:34)
07. Was Ich Liebe (4:29)
08. Diamant (2:34)
09. Weit Weg (4:20)
10. Tattoo (4:11)
11. Hallomann (4:10)
Лог создания рипа
Exact Audio Copy V0.99 prebeta 5 from 4. May 2009
EAC extraction logfile from 18. May 2019, 14:00
Rammstein / Rammstein
Used drive : ASUS DRW-24B5ST Adapter: 1 ID: 0
Read mode : Secure
Utilize accurate stream : Yes
Defeat audio cache : Yes
Make use of C2 pointers : No
Read offset correction : 6
Overread into Lead-In and Lead-Out : No
Fill up missing offset samples with silence : Yes
Delete leading and trailing silent blocks : No
Null samples used in CRC calculations : Yes
Used interface : Native Win32 interface for Win NT & 2000
Gap handling : Appended to previous track
Used output format : Internal WAV Routines
Sample format : 44.100 Hz; 16 Bit; Stereo
TOC of the extracted CD
Track | Start | Length | Start sector | End sector
---------------------------------------------------------
1 | 0:00.00 | 5:23.04 | 0 | 24228
2 | 5:23.04 | 4:37.00 | 24229 | 45003
3 | 10:00.04 | 4:15.37 | 45004 | 64165
4 | 14:15.41 | 3:51.45 | 64166 | 81535
5 | 18:07.11 | 3:56.00 | 81536 | 99235
6 | 22:03.11 | 4:34.00 | 99236 | 119785
7 | 26:37.11 | 4:29.38 | 119786 | 139998
8 | 31:06.49 | 2:34.00 | 139999 | 151548
9 | 33:40.49 | 4:20.37 | 151549 | 171085
10 | 38:01.11 | 4:11.00 | 171086 | 189910
11 | 42:12.11 | 4:10.38 | 189911 | 208698
Track 1
Filename E:\EAC-CD-NEW\01 - Deutschland.wav
Pre-gap length 0:00:02.00
Peak level 96.7 %
Track quality 100.0 %
Test CRC F5EE03CB
Copy CRC F5EE03CB
Copy OK
Track 2
Filename E:\EAC-CD-NEW\02 - Radio.wav
Peak level 95.4 %
Track quality 100.0 %
Test CRC 6D200698
Copy CRC 6D200698
Copy OK
Track 3
Filename E:\EAC-CD-NEW\03 - Zeig Dich.wav
Peak level 96.1 %
Track quality 100.0 %
Test CRC 0435CEBE
Copy CRC 0435CEBE
Copy OK
Track 4
Filename E:\EAC-CD-NEW\04 - Auslander.wav
Peak level 96.7 %
Track quality 100.0 %
Test CRC F458FA5E
Copy CRC F458FA5E
Copy OK
Track 5
Filename E:\EAC-CD-NEW\05 - Sex.wav
Peak level 96.7 %
Track quality 100.0 %
Test CRC AF7E45B3
Copy CRC AF7E45B3
Copy OK
Track 6
Filename E:\EAC-CD-NEW\06 - Puppe.wav
Peak level 96.3 %
Track quality 100.0 %
Test CRC 2DC6E527
Copy CRC 2DC6E527
Copy OK
Track 7
Filename E:\EAC-CD-NEW\07 - Was Ich Liebe.wav
Peak level 96.6 %
Track quality 100.0 %
Test CRC 8F543907
Copy CRC 8F543907
Copy OK
Track 8
Filename E:\EAC-CD-NEW\08 - Diamant.wav
Peak level 86.3 %
Track quality 100.0 %
Test CRC 8C146418
Copy CRC 8C146418
Copy OK
Track 9
Filename E:\EAC-CD-NEW\09 - Weit Weg.wav
Peak level 93.5 %
Track quality 100.0 %
Test CRC 41852884
Copy CRC 41852884
Copy OK
Track 10
Filename E:\EAC-CD-NEW\10 - Tattoo.wav
Peak level 96.7 %
Track quality 100.0 %
Test CRC B8DA995D
Copy CRC B8DA995D
Copy OK
Track 11
Filename E:\EAC-CD-NEW\11 - Hallomann.wav
Peak level 96.7 %
Track quality 100.0 %
Test CRC 2B017F2E
Copy CRC 2B017F2E
Copy OK
No errors occurred
End of status report
Содержание индексной карты (.CUE)
REM GENRE Industrial
REM DATE 2019
REM DISCID 970ADE0B
REM COMMENT ExactAudioCopy v0.99pb5
PERFORMER "Rammstein"
FILE "01 - Deutschland.flac" WAVE
TRACK 01 AUDIO
TITLE "Deutschland"
INDEX 01 00:00:00
FILE "02 - Radio.flac" WAVE
TRACK 02 AUDIO
TITLE "Radio"
INDEX 01 00:00:00
FILE "03 - Zeig Dich.flac" WAVE
TRACK 03 AUDIO
TITLE "Zeig Dich"
INDEX 01 00:00:00
FILE "04 - Auslander.flac" WAVE
TRACK 04 AUDIO
TITLE "Auslander"
INDEX 01 00:00:00
FILE "05 - Sex.flac" WAVE
TRACK 05 AUDIO
TITLE "Sex"
INDEX 01 00:00:00
FILE "06 - Puppe.flac" WAVE
TRACK 06 AUDIO
TITLE "Puppe"
INDEX 01 00:00:00
FILE "07 - Was Ich Liebe.flac" WAVE
TRACK 07 AUDIO
TITLE "Was Ich Liebe"
INDEX 01 00:00:00
FILE "08 - Diamant.flac" WAVE
TRACK 08 AUDIO
TITLE "Diamant"
INDEX 01 00:00:00
FILE "09 - Weit Weg.flac" WAVE
TRACK 09 AUDIO
TITLE "Weit Weg"
INDEX 01 00:00:00
FILE "10 - Tattoo.flac" WAVE
TRACK 10 AUDIO
TITLE "Tattoo"
INDEX 01 00:00:00
FILE "11 - Hallomann.flac" WAVE
TRACK 11 AUDIO
TITLE "Hallomann"
INDEX 01 00:00:00
DR
foobar2000 1.3.15 / Dynamic Range Meter 1.1.1
log date: 2019-05-20 12:42:30
--------------------------------------------------------------------------------
Analyzed: Rammstein / Rammstein
--------------------------------------------------------------------------------
DR Peak RMS Duration Track
--------------------------------------------------------------------------------
DR8 -0.28 dB -9.67 dB 5:23 01-Deutschland
DR9 -0.41 dB -11.57 dB 4:37 02-Radio
DR9 -0.34 dB -10.82 dB 4:15 03-Zeig Dich
DR9 -0.29 dB -10.89 dB 3:52 04-Auslander
DR9 -0.28 dB -10.49 dB 3:56 05-Sex
DR9 -0.32 dB -12.83 dB 4:34 06-Puppe
DR9 -0.29 dB -11.67 dB 4:30 07-Was Ich Liebe
DR9 -1.28 dB -13.63 dB 2:34 08-Diamant
DR9 -0.58 dB -10.59 dB 4:20 09-Weit Weg
DR9 -0.29 dB -11.21 dB 4:11 10-Tattoo
DR9 -0.28 dB -11.65 dB 4:11 11-Hallomann
--------------------------------------------------------------------------------
Number of tracks: 11
Official DR value: DR9
Samplerate: 44100 Hz
Channels: 2
Bits per sample: 16
Bitrate: 949 kbps
Codec: FLAC
Download
Для скачивания .torrent файлов необходима регистрация
Сайт не распространяет и не хранит электронные версии произведений, а лишь предоставляет доступ к создаваемому пользователями каталогу ссылок на торрент-файлы, которые содержат только списки хеш-сумм
[Профиль]  [ЛС] 

chegivaraoh

Top Seed 03* 160r

Стаж: 9 лет 6 месяцев

Сообщений: 803

chegivaraoh · 20-Май-19 12:29 (спустя 16 мин.)

повтор https://rutracker.org/forum/viewtopic.php?t=5732722
[Профиль]  [ЛС] 

xXrammXx

Стаж: 10 лет 11 месяцев

Сообщений: 457

xXrammXx · 20-Май-19 12:32 (спустя 2 мин.)

KSL Edition
[Профиль]  [ЛС] 

КотDNC

Top Seed 01* 40r

Стаж: 9 лет 6 месяцев

Сообщений: 606

КотDNC · 20-Май-19 12:44 (спустя 12 мин., ред. 20-Май-19 12:44)

chegivaraoh
не, не повтор. здесь т.н. "любительский ремастер" от KronStudioLab Int'l.
бьюсь об заклад, ребята устранили клиппинг и динам диапазон восстановили, разве что
Предлагаю переместить сюда: Музыка (lossless)
upd.:
DR
foobar2000 1.3.15 / Dynamic Range Meter 1.1.1
log date: 2019-05-20 12:42:30
--------------------------------------------------------------------------------
Analyzed: Rammstein / Rammstein
--------------------------------------------------------------------------------
DR Peak RMS Duration Track
--------------------------------------------------------------------------------
DR8 -0.28 dB -9.67 dB 5:23 01-Deutschland
DR9 -0.41 dB -11.57 dB 4:37 02-Radio
DR9 -0.34 dB -10.82 dB 4:15 03-Zeig Dich
DR9 -0.29 dB -10.89 dB 3:52 04-Auslander
DR9 -0.28 dB -10.49 dB 3:56 05-Sex
DR9 -0.32 dB -12.83 dB 4:34 06-Puppe
DR9 -0.29 dB -11.67 dB 4:30 07-Was Ich Liebe
DR9 -1.28 dB -13.63 dB 2:34 08-Diamant
DR9 -0.58 dB -10.59 dB 4:20 09-Weit Weg
DR9 -0.29 dB -11.21 dB 4:11 10-Tattoo
DR9 -0.28 dB -11.65 dB 4:11 11-Hallomann
--------------------------------------------------------------------------------
Number of tracks: 11
Official DR value: DR9
Samplerate: 44100 Hz
Channels: 2
Bits per sample: 16
Bitrate: 949 kbps
Codec: FLAC
================================================================================
[Профиль]  [ЛС] 

vvcvch12345

Стаж: 7 месяцев

Сообщений: 31


vvcvch12345 · 20-Май-19 13:25 (спустя 40 мин., ред. 20-Май-19 13:25)

КотDNC
они не любители - раз
не "ремастер" а именно мастер, свой - два
не устарнили клиппинг а сделали без него - три
если честно уже подбешивают местыне гуру котрые не понимают сути происъодящего, а только бегают с анализаторами меряют циферки тут ДИНДИАПАЗОН 6 а тут 7 УУУУ
[Профиль]  [ЛС] 

КотDNC

Top Seed 01* 40r

Стаж: 9 лет 6 месяцев

Сообщений: 606

КотDNC · 20-Май-19 13:49 (спустя 24 мин.)

vvcvch12345
они не любители - раз, пруфы?
не "ремастер" а именно мастер, свой - два - ребятам дали исходники? здорово, класс, верю! (нет)
не устарнили клиппинг а сделали без него - три - все еще вопрос про исходники.
если честно уже подбешивают местыне гуру котрые не понимают сути происъодящего, а только предъявляют за то, что на скорую руку посмотрел ДИНДИАПАЗОН, УУУУ
И личное замечание Вам, не нужно в следующий раз писать с пенной из одного места.
[Профиль]  [ЛС] 

Gunzzo

Стаж: 7 лет 3 месяца

Сообщений: 29

Gunzzo · 20-Май-19 15:42 (спустя 1 час 53 мин.)

Я не понимаю, почему они не обновляются до версии 1.3.2 см. Изменения> https://xiph.org/flac/changelog.html
[Профиль]  [ЛС] 

DEWON-O-MID

Стаж: 4 года 5 месяцев

Сообщений: 158


DEWON-O-MID · 20-Май-19 16:15 (спустя 32 мин.)

Имхо островато сделано.
Имеется цифровая обработка:
Rammstein - Rammstein (2019) [Smooth and Clean Remaster]
[Профиль]  [ЛС] 

habarbar

Стаж: 10 лет 8 месяцев

Сообщений: 771

habarbar · 20-Май-19 18:14 (спустя 1 час 58 мин.)

Спасибо! И без того классный звук CD стал еще лучше! KSL молодцы!
[Профиль]  [ЛС] 

Vknish

Moderator

Стаж: 11 лет 5 месяцев

Сообщений: 4681

Vknish · 20-Май-19 20:59 (спустя 2 часа 45 мин.)

Цитата:
KSL Edition
# Сомнительно
[Профиль]  [ЛС] 

AlexeyKrause

Стаж: 9 лет 1 месяц

Сообщений: 428

AlexeyKrause · 20-Май-19 21:43 (спустя 43 мин.)

Послушал, шляпа какая-то. Буд-то заранее с эквалайзером поиграли, как кому-то по душе было.
[Профиль]  [ЛС] 

Алвыч.

Стаж: 4 года 10 месяцев

Сообщений: 639

Алвыч. · 22-Май-19 08:39 (спустя 1 день 10 часов)

xXrammXx
Спасибо,альбом понравился,звук хороший!
[Профиль]  [ЛС] 

Atront

Стаж: 9 лет 3 месяца

Сообщений: 63


Atront · 22-Май-19 10:48 (спустя 2 часа 8 мин., ред. 22-Май-19 10:48)

Альбом не особо понравился.Чем-то похож на альбомы Мэнсона.Вобщем,походу Rosenrot последний нормальный альбом .
[Профиль]  [ЛС] 

Leominor 1

Стаж: 9 лет 4 месяца

Сообщений: 69

Leominor 1 · 26-Май-19 19:38 (спустя 4 дня)

AlexeyKrause писал(а):
77406808Послушал, шляпа какая-то. Буд-то заранее с эквалайзером поиграли, как кому-то по душе было.
- Все познается в сравнении!.. - Скачивал пять разных раздач и эта оказалась лучшей в плане звучания. А следовательно: За неимением лучшего (и будет ли оно вообще), на безрыбье, как говорится - чем дальше в лес, тем третий лишний...
[Профиль]  [ЛС] 

Vitalich88

Стаж: 8 лет 9 месяцев

Сообщений: 13


Vitalich88 · 27-Май-19 13:48 (спустя 18 часов, ред. 27-Май-19 13:48)

Leominor 1 писал(а):
77436540- Все познается в сравнении!.. - Скачивал пять разных раздач и эта оказалась лучшей в плане звучания. А следовательно: За неимением лучшего (и будет ли оно вообще), на безрыбье, как говорится - чем дальше в лес, тем третий лишний...
Самая нормальная версия это cd-rip причём в идеале собственный. А все эти мастеры-ремастеры-ломастеры супер hd 8k делюкс эдишн - шляпа полная. Слушая на нормальном оборудовании сразу понимаешь что делают всё это люди далёкие от мира проф музыки. Одни басов наваливают, другие высоких частот добавляют так что мозг закипает и тд. Каждый извращается как может. Вот только к качественному звуку это никакого отношения не имеет.
[Профиль]  [ЛС] 

bezbazara

Стаж: 4 года 8 месяцев

Сообщений: 2516

bezbazara · 30-Май-19 19:33 (спустя 3 дня)

Лучший, спасибо!
[Профиль]  [ЛС] 

zewepake

Стаж: 1 год 1 месяц

Сообщений: 71


zewepake · 18-Июн-19 13:28 (спустя 18 дней)

Vitalich88 писал(а):
Самая нормальная версия это cd-rip причём в идеале собственный. А все эти мастеры-ремастеры-ломастеры супер hd 8k делюкс эдишн - шляпа полная. Слушая на нормальном оборудовании сразу понимаешь что делают всё это люди далёкие от мира проф музыки. Одни басов наваливают, другие высоких частот добавляют так что мозг закипает и тд. Каждый извращается как может. Вот только к качественному звуку это никакого отношения не имеет.
чёткий поцик
[Профиль]  [ЛС] 

benziny

Стаж: 7 лет 4 месяца

Сообщений: 3


benziny · 29-Июн-19 18:52 (спустя 11 дней)

Может, и не эталон CDкачества, но однозначно лучше компрессятины с оригинального CD. ИМХО
Спасибо KSL и релизеру
[Профиль]  [ЛС] 
 
Ответить
Loading...
Error