(Folk Rock, Blues Rock) [MC] [24/48] [RM] [SN] Baba Yaga - Where Will You Go?/Баба Яга - Куда Ты Пойдешь? - 1996, FLAC (image+.cue), lossless

Страницы:  1

Ответить
Автор
Сообщение

samopal records

VIP (Заслуженный)

Стаж: 9 лет 4 месяца

Сообщений: 5250

samopal records · 21-Май-19 08:43 (2 месяца назад, ред. 21-Май-19 08:46)

Baba Yaga - Куда Ты Пойдешь? (1996)
Жанр: Folk Rock, Blues Rock
Носитель: MC
Страна-производитель диска (релиза): Russia
Год издания: 1996
Издатель (лейбл): Master Sound, Unofficial Release
Номер по каталогу: none
Аудиокодек: FLAC (*.flac)
Тип рипа: image+.cue
Продолжительность: 00:52:15
Формат записи: 24/96
Формат раздачи: 24/48
Тэги в .cue: прописаны
Dynamic Range Meter: DR11
Код класса состояния магнитоленты: VG
Устройство воспроизведения: AKAI GX 95MK2
Магнитная головка: LC-OFC SGX (x2)
Предварительный усилитель: встроенный
АЦП: [email protected]
Программа-оцифровщик: Adobe Audition CS6 5.0.2.
Обработка: удаление артефактов, частичные реставрация
Наличие сканов в содержимом раздачи: да
Трэклист:

A1 Where Will You Go (Куда ты пойдешь)
A2 So Ends Another Day (Так заканчивается день)
A3 Side To Side (Бок о бок)
A4 Red Bird (Красная птица)
A5 Time To Try (Пора попробовать)
B1 Back In The USSR (Возвращение в СССР)
B2 All Work And No Play (Работа без отдыха)
B3 It`s Me (Это я)
B4 Days Of Old (Дни старости)
B5 Beating My Dreams Away (Разрушение мечты)
B6 All The Lights (Все огни)
Dynamic Range Meter (DR11):
foobar2000 1.1.3 / Dynamic Range Meter 1.1.1
log date: 2019-05-19 12:33:40
--------------------------------------------------------------------------------
Analyzed: Baba Yaga / Куда Ты Пойдешь?
--------------------------------------------------------------------------------
DR Peak RMS Duration Track
--------------------------------------------------------------------------------
DR11 -2.31 dB -14.94 dB 4:15 ?-A1 Where Will You Go (Куда ты пойдешь)
DR11 -1.52 dB -15.44 dB 7:21 ?-A2 So Ends Another Day (Так заканчивается день)
DR11 -0.10 dB -14.30 dB 4:48 ?-A3 Side To Side (Бок о бок)
DR11 -1.29 dB -14.61 dB 4:42 ?-A4 Red Bird (Красная птица)
DR10 -0.10 dB -13.46 dB 4:37 ?-A5 Time To Try (Пора попробовать)
DR10 -3.55 dB -15.91 dB 1:44 ?-B1 Back In The USSR (Возвращение в СССР)
DR11 -0.64 dB -14.20 dB 5:05 ?-B2 All Work And No Play (Работа без отдыха)
DR10 -0.10 dB -13.89 dB 5:39 ?-B3 It`s Me (Это я)
DR11 -1.53 dB -14.57 dB 4:39 ?-B4 Days Of Old (Дни старости)
DR12 -0.52 dB -15.85 dB 5:07 ?-B5 Beating My Dreams Away (Разрушение мечты)
DR10 -2.45 dB -16.78 dB 4:19 ?-B6 All The Lights (Все огни)
--------------------------------------------------------------------------------
Number of tracks: 11
Official DR value: DR11
Samplerate: 44100 Hz
Channels: 2
Bits per sample: 16
Bitrate: 950 kbps
Codec: FLAC
================================================================================
Содержание индексной карты (.CUE):
REM GENRE "Folk Rock, Blues Rock"
REM DATE "1996"
REM COMMENT "Cassette, Album, Unofficial Release, Master Sound - none, Russia"
PERFORMER "Baba Yaga"
TITLE "Куда Ты Пойдешь?"
FILE "01. Side А.flac" WAVE
TRACK 01 AUDIO
TITLE "A1 Where Will You Go (Куда ты пойдешь)"
INDEX 01 00:00:00
TRACK 02 AUDIO
TITLE "A2 So Ends Another Day (Так заканчивается день)"
INDEX 01 04:15:09
TRACK 03 AUDIO
TITLE "A3 Side To Side (Бок о бок)"
INDEX 01 11:35:55
TRACK 04 AUDIO
TITLE "A4 Red Bird (Красная птица)"
INDEX 01 16:23:52
TRACK 05 AUDIO
TITLE "A5 Time To Try (Пора попробовать)"
INDEX 01 21:05:60
FILE "02. Side В.flac" WAVE
TRACK 06 AUDIO
TITLE "B1 Back In The USSR (Возвращение в СССР)"
INDEX 01 00:00:00
TRACK 07 AUDIO
TITLE "B2 All Work And No Play (Работа без отдыха)"
INDEX 01 01:44:04
TRACK 08 AUDIO
TITLE "B3 It`s Me (Это я)"
INDEX 01 06:49:07
TRACK 09 AUDIO
TITLE "B4 Days Of Old (Дни старости)"
INDEX 01 12:27:54
TRACK 10 AUDIO
TITLE "B5 Beating My Dreams Away (Разрушение мечты)"
INDEX 01 17:06:19
TRACK 11 AUDIO
TITLE "B6 All The Lights (Все огни)"
INDEX 01 22:12:63
Covers:
Уровень записи, спектр, АЧХ:


Download
Для скачивания .torrent файлов необходима регистрация
Сайт не распространяет и не хранит электронные версии произведений, а лишь предоставляет доступ к создаваемому пользователями каталогу ссылок на торрент-файлы, которые содержат только списки хеш-сумм
[Профиль]  [ЛС] 

GINIGOR.

Стаж: 10 лет

Сообщений: 10


GINIGOR. · 30-Июн-19 17:02 (спустя 1 месяц 9 дней)

Круто! Спасибо большое!
[Профиль]  [ЛС] 

samopal records

VIP (Заслуженный)

Стаж: 9 лет 4 месяца

Сообщений: 5250

samopal records · 30-Июн-19 19:02 (спустя 1 час 59 мин.)

GINIGOR. писал(а):
77605742Круто! Спасибо большое!
[Профиль]  [ЛС] 
 
Ответить
Loading...
Error